<?xml version="1.0" standalone="no"?>
<!DOCTYPE svg PUBLIC "-//W3C//DTD SVG 1.1//EN" "http://www.w3.org/Graphics/SVG/1.1/DTD/svg11.dtd" >
<svg xmlns="http://www.w3.org/2000/svg" xmlns:xlink="http://www.w3.org/1999/xlink" version="1.1">
<metadata>
Created by FontForge 20190801 at Fri May 12 12:07:21 2006
 By root
 The digitally encoded machine readable software for producing the
 Typefaces licensed to you is copyrighted (c) 1989, 1995, 2002 Adobe Systems.
 All Rights Reserved. This software is the property of Adobe Systems
 Incorporated and its licensors, and may not be reproduced, used,
 displayed, modified, disclosed or transferred without the express
 written approval of Adobe.

 The digitally encoded machine readable outline data for producing the Typefaces
 provided as part of your laser printer is copyrighted (c) 1981, 1995, 2002 Heidelberger Druckmaschinen AG.
 All rights reserved. This data is the property of Heidelberger Druckmaschinen AG,
 and may not be reproduced, used, displayed, modified, disclosed or transferred
 without the express written approval of Heidelberger Druckmaschinen AG. 
</metadata>
<defs>
<font id="AvenirLTStd-Oblique" horiz-adv-x="556" >
  <font-face 
    font-family="Avenir LT Std"
    font-weight="400"
    font-style="oblique"
    font-stretch="normal"
    units-per-em="1000"
    panose-1="2 11 5 3 2 2 3 2 2 4"
    ascent="756"
    descent="-244"
    x-height="468"
    cap-height="708"
    bbox="-166 -277 1057 928"
    underline-thickness="50"
    underline-position="-100"
    slope="-8"
    stemh="66"
    stemv="78"
    unicode-range="U+0020-FB02"
  />
<missing-glyph horiz-adv-x="598" 
d="M98 0v700h500v-700h-500zM348 395l170 255h-340zM378 350l170 -255v510zM178 50h340l-170 255zM148 605v-510l170 255z" />
    <glyph glyph-name="fi" unicode="fi" horiz-adv-x="537" 
d="M372 468l-9 -66h-114l-57 -402h-78l57 402h-102l9 66h102l15 105c16 114 67 195 193 195c20 0 44 -4 58 -12l-21 -70c-16 6 -33 10 -51 10c-81 0 -92 -59 -104 -140l-12 -88h114zM378 0l66 468h78l-66 -468h-78zM451 651c5 31 34 57 66 57s53 -26 48 -57
c-4 -33 -32 -57 -65 -57s-53 24 -49 57z" />
    <glyph glyph-name="fl" unicode="fl" horiz-adv-x="537" 
d="M114 0l57 402h-102l9 66h102l15 105c16 114 67 195 193 195c20 0 44 -4 58 -12l-21 -70c-16 6 -33 10 -51 10c-81 0 -92 -59 -104 -140l-12 -88h114l-9 -66h-114l-57 -402h-78zM378 0l106 756h78l-106 -756h-78z" />
    <glyph glyph-name=".notdef" horiz-adv-x="598" 
d="M98 0v700h500v-700h-500zM348 395l170 255h-340zM378 350l170 -255v510zM178 50h340l-170 255zM148 605v-510l170 255z" />
    <glyph glyph-name="space" unicode=" " horiz-adv-x="278" 
 />
    <glyph glyph-name="exclam" unicode="!" horiz-adv-x="278" 
d="M281 708l-72 -510h-84l72 510h84zM155 114c33 0 56 -27 52 -60c-5 -33 -38 -60 -69 -60s-56 27 -51 60c4 33 35 60 68 60z" />
    <glyph glyph-name="quotedbl" unicode="&#x22;" horiz-adv-x="519" 
d="M216 468l34 240h72l-34 -240h-72zM363 468l34 240h72l-34 -240h-72z" />
    <glyph glyph-name="numbersign" unicode="#" 
d="M98 0l60 213h-98l9 66h108l42 152h-98l9 66h108l60 211h67l-60 -211h126l60 211h67l-60 -211h98l-9 -66h-107l-43 -152h98l-9 -66h-108l-60 -213h-67l60 213h-126l-60 -213h-67zM370 279l43 152h-126l-43 -152h126z" />
    <glyph glyph-name="dollar" unicode="$" 
d="M244 -83l10 71c-83 0 -160 26 -201 93l79 61c23 -45 77 -74 133 -76l36 254c-101 28 -186 82 -169 203c15 112 119 188 225 197l9 66h48l-9 -66c72 0 143 -27 183 -81l-75 -60c-24 40 -67 63 -119 63l-35 -249c103 -34 200 -72 182 -203c-17 -119 -124 -195 -239 -202
l-10 -71h-48zM313 406l33 236c-66 -12 -116 -57 -125 -120c-9 -69 35 -92 92 -116zM347 307l-34 -241c69 8 128 56 137 120c10 73 -45 102 -103 121z" />
    <glyph glyph-name="percent" unicode="%" horiz-adv-x="833" 
d="M115 545c13 98 101 175 199 175s164 -77 151 -175c-14 -98 -102 -175 -200 -175s-164 77 -150 175zM187 545c-8 -56 33 -103 88 -103s110 47 118 103c7 56 -34 103 -89 103s-110 -47 -117 -103zM468 163c14 98 102 175 200 175s164 -77 150 -175s-102 -175 -200 -175
s-164 77 -150 175zM540 163c-8 -56 33 -103 88 -103s110 47 118 103s-34 103 -89 103s-109 -47 -117 -103zM170 0l548 740l51 -32l-548 -740z" />
    <glyph glyph-name="ampersand" unicode="&#x26;" horiz-adv-x="722" 
d="M593 0l-82 102c-67 -72 -134 -114 -228 -114c-120 0 -214 75 -196 202c14 100 95 166 186 205c-40 47 -72 96 -62 164c14 105 107 162 205 162c96 0 170 -53 155 -157c-12 -89 -99 -143 -175 -180l128 -159l117 159h95l-167 -218l139 -166h-115zM330 461l21 -26
c57 29 127 61 137 131c7 52 -30 83 -79 83c-56 0 -107 -37 -115 -95c-5 -38 15 -68 36 -93zM468 158l-151 186c-64 -33 -135 -75 -146 -151s45 -133 119 -133c73 0 126 46 178 98z" />
    <glyph glyph-name="quoteright" unicode="&#x2019;" horiz-adv-x="278" 
d="M318 708l-116 -240h-76l101 240h91z" />
    <glyph glyph-name="parenleft" unicode="(" horiz-adv-x="278" 
d="M238 -118l-59 -38c-77 131 -105 291 -84 444c24 164 99 319 209 444l48 -40c-101 -117 -164 -258 -185 -404c-22 -161 4 -271 71 -406z" />
    <glyph glyph-name="parenright" unicode=")" horiz-adv-x="278" 
d="M121 694l59 38c76 -131 105 -291 83 -444c-23 -164 -98 -319 -208 -444l-48 40c101 117 164 258 184 404c23 161 -3 271 -70 406z" />
    <glyph glyph-name="asterisk" unicode="*" horiz-adv-x="444" 
d="M352 708l-21 -149l148 48l11 -58l-148 -48l73 -119l-55 -38l-72 123l-105 -123l-44 38l103 119l-134 48l27 58l136 -48l21 149h60z" />
    <glyph glyph-name="plus" unicode="+" horiz-adv-x="666" 
d="M110 270l9 66h228l32 228h66l-32 -228h228l-9 -66h-228l-32 -228h-66l32 228h-228z" />
    <glyph glyph-name="comma" unicode="," horiz-adv-x="278" 
d="M225 102l-115 -240h-77l101 240h91z" />
    <glyph glyph-name="hyphen" unicode="-" horiz-adv-x="333" 
d="M73 204l10 72h245l-10 -72h-245z" />
    <glyph glyph-name="period" unicode="." horiz-adv-x="278" 
d="M155 114c33 0 56 -27 52 -60c-5 -33 -38 -60 -69 -60s-56 27 -51 60c4 33 35 60 68 60z" />
    <glyph glyph-name="slash" unicode="/" horiz-adv-x="370" 
d="M469 726l-409 -769l-60 25l409 768z" />
    <glyph glyph-name="zero" unicode="0" 
d="M88 354c22 161 96 366 291 366s211 -205 189 -366c-23 -161 -97 -366 -292 -366s-211 205 -188 366zM172 354c-15 -104 -26 -294 114 -294s183 190 198 294c14 104 25 294 -115 294s-183 -190 -197 -294z" />
    <glyph glyph-name="one" unicode="1" 
d="M460 708l-100 -708h-84l84 600h-2l-142 -107l-41 61l212 154h73z" />
    <glyph glyph-name="two" unicode="2" 
d="M50 0l13 96l304 260c76 65 115 103 124 172c11 74 -41 120 -112 120s-127 -45 -150 -113l-90 8c36 116 133 177 247 177c117 0 207 -66 189 -192c-16 -113 -92 -176 -172 -243l-247 -205v-2h361l-11 -78h-456z" />
    <glyph glyph-name="three" unicode="3" 
d="M251 336l10 72h26c70 0 164 16 179 123c10 72 -34 117 -105 117c-59 0 -109 -27 -141 -79l-77 31c46 80 132 120 222 120c113 0 202 -63 185 -185c-10 -74 -69 -140 -144 -162v-2c88 -15 133 -89 120 -178c-19 -135 -137 -205 -263 -205c-107 0 -186 44 -207 149l89 28
c14 -76 50 -105 128 -105c80 0 152 57 164 139c15 104 -73 137 -160 137h-26z" />
    <glyph glyph-name="four" unicode="4" 
d="M519 708l-66 -468h102l-11 -78h-102l-23 -162h-84l23 162h-300l13 93l345 453h103zM369 240l52 370h-2l-278 -370h228z" />
    <glyph glyph-name="five" unicode="5" 
d="M574 708l-11 -78h-289l-30 -191c29 13 64 17 93 17c136 0 212 -100 193 -233c-19 -141 -138 -235 -276 -235c-107 0 -164 51 -191 129l89 32c16 -53 59 -89 119 -89c85 0 162 65 175 163c15 104 -53 161 -152 161c-48 0 -105 -19 -150 -44l59 368h371z" />
    <glyph glyph-name="six" unicode="6" 
d="M494 708l-232 -295l2 -2c28 15 69 21 98 21c123 0 201 -90 183 -222c-20 -138 -135 -222 -269 -222s-225 84 -205 222c11 82 48 138 94 199l231 299h98zM329 360c-85 0 -162 -58 -174 -150c-13 -92 46 -150 131 -150s162 58 175 150c12 92 -47 150 -132 150z" />
    <glyph glyph-name="seven" unicode="7" 
d="M580 708l-11 -78l-372 -630h-95l377 630h-342l11 78h432z" />
    <glyph glyph-name="eight" unicode="8" 
d="M151 535c16 111 114 185 228 185s192 -74 176 -185c-9 -67 -63 -137 -138 -156v-2c82 -18 127 -93 114 -182c-18 -129 -129 -207 -255 -207s-215 78 -197 207c13 89 78 164 166 182v2c-69 19 -103 89 -94 156zM235 531c-10 -67 31 -117 101 -117s125 50 135 117
c9 67 -32 117 -102 117s-125 -50 -134 -117zM164 201c-11 -83 43 -141 122 -141s151 58 162 141c12 83 -43 141 -122 141s-150 -58 -162 -141z" />
    <glyph glyph-name="nine" unicode="9" 
d="M162 0l231 295l-1 2c-28 -15 -69 -21 -98 -21c-123 0 -202 90 -183 222c19 138 134 222 268 222s225 -84 206 -222c-12 -82 -48 -138 -95 -199l-230 -299h-98zM327 348c85 0 161 58 174 150s-47 150 -132 150s-161 -58 -174 -150s47 -150 132 -150z" />
    <glyph glyph-name="colon" unicode=":" horiz-adv-x="278" 
d="M206 480c33 0 57 -27 52 -60s-37 -60 -68 -60s-57 27 -52 60s35 60 68 60zM155 114c33 0 56 -27 52 -60c-5 -33 -38 -60 -69 -60s-56 27 -51 60c4 33 35 60 68 60z" />
    <glyph glyph-name="semicolon" unicode=";" horiz-adv-x="278" 
d="M225 102l-115 -240h-77l101 240h91zM206 480c33 0 57 -27 52 -60s-37 -60 -68 -60s-57 27 -52 60s35 60 68 60z" />
    <glyph glyph-name="less" unicode="&#x3c;" horiz-adv-x="666" 
d="M673 564l-9 -66l-468 -195l413 -195l-9 -66l-489 232l8 58z" />
    <glyph glyph-name="equal" unicode="=" horiz-adv-x="666" 
d="M121 348l9 66h522l-9 -66h-522zM99 192l9 66h522l-9 -66h-522z" />
    <glyph glyph-name="greater" unicode="&#x3e;" horiz-adv-x="666" 
d="M78 42l9 66l469 195l-414 195l9 66l490 -232l-8 -58z" />
    <glyph glyph-name="question" unicode="?" horiz-adv-x="482" 
d="M217 198l9 63c10 74 29 89 89 141c46 42 98 80 107 143c9 64 -25 109 -91 109c-67 0 -118 -44 -137 -109l-89 10c33 109 128 171 237 171s186 -63 170 -178c-12 -88 -73 -137 -141 -193c-48 -40 -56 -54 -64 -111l-6 -46h-84zM247 114c33 0 56 -27 52 -60
c-5 -33 -38 -60 -69 -60s-56 27 -51 60c4 33 35 60 68 60z" />
    <glyph glyph-name="at" unicode="@" horiz-adv-x="800" 
d="M303 293c-8 -55 24 -96 74 -96c87 0 173 130 184 212c8 51 -25 94 -67 94c-94 0 -179 -123 -191 -210zM696 550l-123 -283c-8 -16 -14 -35 -17 -50c-1 -14 5 -20 22 -20c64 0 155 107 170 218c22 157 -97 257 -236 257c-173 0 -328 -146 -352 -318
c-25 -179 98 -318 263 -318c99 0 205 48 269 121h63c-79 -109 -210 -175 -340 -175c-210 0 -350 165 -321 372c29 208 220 372 426 372c183 0 320 -127 295 -306c-24 -173 -181 -289 -275 -289c-34 0 -59 21 -54 66h-2c-36 -36 -76 -66 -135 -66c-85 0 -131 68 -119 155
c20 139 132 283 273 283c46 0 86 -22 99 -82h2l27 63h65z" />
    <glyph glyph-name="A" unicode="A" horiz-adv-x="704" 
d="M6 0l412 708h79l201 -708h-98l-48 174h-354l-97 -174h-95zM531 252l-91 348h-2l-196 -348h289z" />
    <glyph glyph-name="B" unicode="B" horiz-adv-x="630" 
d="M88 0l100 708h216c117 0 228 -44 210 -174c-11 -82 -67 -137 -146 -160l-1 -2c90 -8 149 -81 136 -174c-22 -156 -173 -198 -304 -198h-211zM261 630l-32 -222h116c79 0 164 17 178 115c12 87 -61 107 -137 107h-125zM218 330l-35 -252h142c82 0 176 33 188 123
c14 99 -66 129 -151 129h-144z" />
    <glyph glyph-name="C" unicode="C" horiz-adv-x="704" 
d="M743 615l-80 -53c-34 57 -97 86 -165 86c-158 0 -289 -139 -311 -294c-23 -164 69 -294 228 -294c86 0 160 35 219 99l56 -53c-75 -85 -173 -124 -286 -124c-203 0 -337 157 -307 372c29 208 202 372 412 372c96 0 185 -33 234 -111z" />
    <glyph glyph-name="D" unicode="D" horiz-adv-x="741" 
d="M75 0l100 708h272c139 0 333 -93 297 -354c-37 -261 -258 -354 -397 -354h-272zM248 630l-78 -552h160c162 0 296 82 324 276c27 194 -84 276 -246 276h-160z" />
    <glyph glyph-name="E" unicode="E" horiz-adv-x="593" 
d="M88 0l100 708h445l-11 -78h-361l-32 -222h337l-11 -78h-337l-35 -252h379l-11 -78h-463z" />
    <glyph glyph-name="F" unicode="F" 
d="M88 0l100 708h439l-11 -78h-355l-33 -234h330l-11 -78h-330l-45 -318h-84z" />
    <glyph glyph-name="G" unicode="G" horiz-adv-x="778" 
d="M746 396l-49 -348c-88 -45 -183 -66 -275 -66c-220 0 -356 150 -325 372c31 223 221 372 433 372c93 0 180 -25 237 -93l-72 -66c-41 52 -110 81 -182 81c-162 0 -302 -122 -326 -294c-24 -169 77 -294 251 -294c57 0 127 15 182 41l31 217h-163l11 78h247z" />
    <glyph glyph-name="H" unicode="H" horiz-adv-x="722" 
d="M88 0l100 708h84l-43 -300h378l43 300h84l-100 -708h-84l46 330h-378l-46 -330h-84z" />
    <glyph glyph-name="I" unicode="I" horiz-adv-x="260" 
d="M88 0l100 708h84l-100 -708h-84z" />
    <glyph glyph-name="J" unicode="J" horiz-adv-x="482" 
d="M494 708l-74 -525c-14 -95 -80 -201 -231 -201c-100 0 -163 51 -167 152l86 17c3 -56 34 -91 93 -91c96 0 128 75 139 152l70 496h84z" />
    <glyph glyph-name="K" unicode="K" horiz-adv-x="630" 
d="M88 0l100 708h84l-43 -306h12l365 306h121l-396 -323l313 -385h-123l-286 360h-12l-51 -360h-84z" />
    <glyph glyph-name="L" unicode="L" horiz-adv-x="500" 
d="M88 0l100 708h84l-89 -630h324l-11 -78h-408z" />
    <glyph glyph-name="M" unicode="M" horiz-adv-x="907" 
d="M88 0l100 708h125l162 -555h2l320 555h122l-100 -708h-84l83 594h-2l-337 -594h-51l-171 594h-2l-83 -594h-84z" />
    <glyph glyph-name="N" unicode="N" horiz-adv-x="778" 
d="M88 0l100 708h106l327 -588h2l83 588h84l-100 -708h-106l-327 588h-2l-83 -588h-84z" />
    <glyph glyph-name="O" unicode="O" horiz-adv-x="834" 
d="M414 -18c-215 0 -347 158 -317 372s207 372 422 372s348 -158 318 -372s-208 -372 -423 -372zM425 60c166 0 299 131 322 294s-73 294 -239 294s-298 -131 -321 -294s72 -294 238 -294z" />
    <glyph glyph-name="P" unicode="P" horiz-adv-x="593" 
d="M88 0l100 708h210c130 0 241 -46 220 -194c-22 -155 -159 -196 -259 -196h-142l-45 -318h-84zM261 630l-33 -234h142c84 0 147 38 158 117s-41 117 -125 117h-142z" />
    <glyph glyph-name="Q" unicode="Q" horiz-adv-x="834" 
d="M832 72l-10 -72h-411c-207 0 -342 158 -313 363s208 363 415 363s342 -158 313 -363c-17 -120 -100 -244 -213 -289v-2h219zM188 363c-22 -160 78 -285 234 -285s292 125 314 285c22 158 -75 285 -234 285s-292 -127 -314 -285z" />
    <glyph glyph-name="R" unicode="R" horiz-adv-x="611" 
d="M88 0l100 708h181c137 0 279 -20 254 -195c-14 -103 -91 -170 -203 -187l155 -326h-103l-147 318h-108l-45 -318h-84zM261 630l-33 -234h75c93 0 214 0 230 117c14 102 -72 117 -154 117h-118z" />
    <glyph glyph-name="S" unicode="S" 
d="M583 643l-77 -60c-22 45 -69 65 -120 65c-74 0 -156 -35 -168 -119c-9 -65 23 -94 131 -130c105 -35 202 -71 183 -210c-20 -141 -151 -207 -279 -207c-82 0 -166 27 -204 98l81 59c22 -52 78 -79 139 -79c72 0 160 42 172 123c12 87 -45 102 -165 144
c-95 33 -165 77 -149 195c19 136 146 204 270 204c79 0 143 -22 186 -83z" />
    <glyph glyph-name="T" unicode="T" horiz-adv-x="574" 
d="M663 708l-11 -78h-234l-89 -630h-84l89 630h-234l11 78h552z" />
    <glyph glyph-name="U" unicode="U" horiz-adv-x="704" 
d="M719 708l-62 -438c-22 -154 -113 -288 -308 -288s-248 134 -226 288l62 438h84l-60 -426c-16 -114 10 -222 151 -222s199 108 215 222l60 426h84z" />
    <glyph glyph-name="V" unicode="V" horiz-adv-x="611" 
d="M262 0l-171 708h95l136 -582h2l307 582h89l-377 -708h-81z" />
    <glyph glyph-name="W" unicode="W" horiz-adv-x="963" 
d="M213 0l-107 708h93l78 -588h2l257 588h94l90 -588h2l247 588h88l-308 -708h-91l-91 600h-2l-260 -600h-92z" />
    <glyph glyph-name="X" unicode="X" horiz-adv-x="630" 
d="M-3 0l310 373l-190 335h108l152 -277l228 277h105l-286 -335l209 -373h-111l-166 314l-255 -314h-104z" />
    <glyph glyph-name="Y" unicode="Y" horiz-adv-x="594" 
d="M255 0l43 305l-207 403h107l154 -320l250 320h101l-321 -403l-43 -305h-84z" />
    <glyph glyph-name="Z" unicode="Z" horiz-adv-x="574" 
d="M29 0l11 75l487 555h-403l11 78h505l-11 -72l-487 -558h414l-11 -78h-516z" />
    <glyph glyph-name="bracketleft" unicode="[" horiz-adv-x="259" 
d="M296 732l-9 -60h-93l-107 -768h93l-9 -60h-165l125 888h165z" />
    <glyph glyph-name="backslash" unicode="\" horiz-adv-x="370" 
d="M298 -43l-193 769l66 24l193 -768z" />
    <glyph glyph-name="bracketright" unicode="]" horiz-adv-x="259" 
d="M160 672l9 60h165l-125 -888h-165l9 60h93l107 768h-93z" />
    <glyph glyph-name="asciicircum" unicode="^" horiz-adv-x="666" 
d="M119 275l284 433h60l162 -433h-74l-130 349l-228 -349h-74z" />
    <glyph glyph-name="underscore" unicode="_" horiz-adv-x="500" 
d="M-18 -125l7 50h500l-7 -50h-500z" />
    <glyph glyph-name="quoteleft" unicode="&#x2018;" horiz-adv-x="278" 
d="M126 468l116 240h76l-101 -240h-91z" />
    <glyph glyph-name="a" unicode="a" horiz-adv-x="519" 
d="M167 357l-42 51c55 49 128 72 196 72c138 0 187 -66 169 -198l-29 -201c-3 -27 -5 -57 -4 -81h-75c-2 21 2 50 5 70h-2c-38 -48 -95 -82 -166 -82c-95 0 -167 48 -154 139c22 155 203 164 318 164h30l2 14c9 68 -29 103 -102 103c-50 0 -104 -17 -146 -51zM404 225h-78
c-99 0 -167 -27 -176 -90c-8 -59 33 -81 92 -81c90 0 145 65 157 141z" />
    <glyph glyph-name="b" unicode="b" horiz-adv-x="611" 
d="M70 0l106 756h78l-50 -356h2c50 50 111 80 179 80c147 0 232 -104 212 -246c-20 -140 -138 -246 -269 -246c-84 0 -145 42 -166 95h-2l-12 -83h-78zM181 234c-14 -98 40 -174 141 -174s177 76 191 174s-41 174 -142 174s-176 -76 -190 -174z" />
    <glyph glyph-name="c" unicode="c" horiz-adv-x="482" 
d="M526 406l-70 -55c-27 40 -63 57 -110 57c-105 0 -169 -78 -182 -174c-14 -96 38 -174 133 -174c51 0 93 18 128 58l50 -55c-52 -52 -120 -75 -188 -75c-145 0 -227 102 -207 246c20 142 132 246 276 246c69 0 130 -23 170 -74z" />
    <glyph glyph-name="d" unicode="d" horiz-adv-x="611" 
d="M463 0l12 83h-2c-37 -53 -110 -95 -194 -95c-131 0 -219 106 -199 246c20 142 133 246 280 246c68 0 121 -30 157 -80h2l50 356h78l-106 -756h-78zM496 234c14 98 -41 174 -142 174s-176 -76 -190 -174s40 -174 141 -174s177 76 191 174z" />
    <glyph glyph-name="e" unicode="e" 
d="M451 131l53 -46c-65 -71 -135 -97 -222 -97c-147 0 -221 110 -202 246c20 145 136 246 274 246c132 0 210 -90 188 -245l-3 -25h-378c-6 -81 46 -150 131 -150c67 0 116 24 159 71zM170 276h294c8 79 -37 132 -123 132s-150 -53 -171 -132z" />
    <glyph glyph-name="f" unicode="f" horiz-adv-x="315" 
d="M114 0l57 402h-102l9 66h102l15 105c16 114 67 195 193 195c20 0 44 -4 58 -12l-21 -70c-16 6 -33 10 -51 10c-81 0 -92 -59 -104 -140l-12 -88h114l-9 -66h-114l-57 -402h-78z" />
    <glyph glyph-name="g" unicode="g" horiz-adv-x="611" 
d="M607 468l-63 -447c-24 -169 -128 -261 -292 -261c-91 0 -160 24 -217 89l65 64c41 -53 90 -81 162 -81c140 0 190 90 204 189l8 60h-2c-45 -60 -115 -87 -177 -87c-147 0 -235 102 -215 240c21 153 134 246 283 246c63 0 130 -30 153 -92h2l11 80h78zM164 234
c-13 -95 50 -168 141 -168c107 0 179 80 191 170c14 101 -44 172 -143 172c-98 0 -175 -76 -189 -174z" />
    <glyph glyph-name="h" unicode="h" 
d="M74 0l106 756h78l-49 -353h2c26 37 87 77 160 77c123 0 168 -78 152 -191l-41 -289h-78l39 281c11 78 -16 127 -89 127c-101 0 -155 -73 -170 -180l-32 -228h-78z" />
    <glyph glyph-name="i" unicode="i" horiz-adv-x="240" 
d="M81 0l66 468h78l-66 -468h-78zM154 651c5 31 34 57 66 57s53 -26 48 -57c-4 -33 -32 -57 -65 -57s-53 24 -49 57z" />
    <glyph glyph-name="j" unicode="j" horiz-adv-x="240" 
d="M225 468l-81 -573c-7 -48 -42 -135 -158 -135c-18 0 -36 2 -52 10l18 68c13 -4 24 -6 37 -6c59 0 75 45 82 99l76 537h78zM154 651c5 31 34 57 66 57s53 -26 48 -57c-4 -33 -32 -57 -65 -57s-53 24 -49 57z" />
    <glyph glyph-name="k" unicode="k" horiz-adv-x="500" 
d="M74 0l106 756h78l-69 -494l242 206h111l-256 -213l213 -255h-115l-197 246l-35 -246h-78z" />
    <glyph glyph-name="l" unicode="l" horiz-adv-x="240" 
d="M81 0l106 756h78l-106 -756h-78z" />
    <glyph glyph-name="m" unicode="m" horiz-adv-x="852" 
d="M74 0l50 357c6 43 7 80 12 111h74c-4 -25 -5 -51 -9 -77h2c27 46 91 89 168 89c101 0 125 -57 136 -89c42 55 89 89 160 89c134 0 168 -75 151 -196l-40 -284h-78l39 280c9 65 -5 128 -96 128c-66 0 -128 -54 -140 -138l-38 -270h-78l37 265c15 103 -6 143 -70 143
c-101 0 -155 -73 -170 -180l-32 -228h-78z" />
    <glyph glyph-name="n" unicode="n" 
d="M74 0l50 357c6 43 7 80 12 111h74c-4 -25 -5 -51 -9 -77h2c27 46 91 89 168 89c123 0 168 -78 152 -191l-41 -289h-78l39 281c11 78 -16 127 -89 127c-101 0 -155 -73 -170 -180l-32 -228h-78z" />
    <glyph glyph-name="o" unicode="o" horiz-adv-x="594" 
d="M80 234c20 146 140 246 284 246s236 -100 216 -246c-21 -146 -141 -246 -285 -246s-236 100 -215 246zM164 234c-14 -98 40 -174 141 -174s177 76 191 174s-41 174 -142 174s-176 -76 -190 -174z" />
    <glyph glyph-name="p" unicode="p" horiz-adv-x="611" 
d="M38 -228l98 696h78l-10 -68h2c50 50 111 80 179 80c147 0 232 -104 212 -246c-20 -140 -138 -246 -269 -246c-84 0 -145 42 -166 95h-2l-44 -311h-78zM181 234c-14 -98 40 -174 141 -174s177 76 191 174s-41 174 -142 174s-176 -76 -190 -174z" />
    <glyph glyph-name="q" unicode="q" horiz-adv-x="611" 
d="M607 468l-98 -696h-78l42 296h-2c-50 -50 -112 -80 -180 -80c-147 0 -231 104 -211 246c20 140 137 246 268 246c84 0 146 -42 167 -95h2l12 83h78zM496 234c14 98 -41 174 -142 174s-176 -76 -190 -174s40 -174 141 -174s177 76 191 174z" />
    <glyph glyph-name="r" unicode="r" horiz-adv-x="352" 
d="M74 0l50 357c6 43 7 80 12 111h74c-4 -25 -5 -51 -9 -77h2c27 46 91 89 168 89c10 0 21 -1 32 -5l-16 -79c-13 4 -27 6 -41 6c-95 0 -147 -67 -162 -174l-32 -228h-78z" />
    <glyph glyph-name="s" unicode="s" horiz-adv-x="426" 
d="M33 75l68 48c26 -38 56 -63 111 -63c49 0 106 21 114 72c7 50 -42 63 -90 74c-86 20 -160 39 -146 136c13 91 107 138 194 138c66 0 124 -25 148 -85l-72 -43c-15 33 -45 56 -91 56c-43 0 -95 -21 -101 -65c-5 -39 48 -56 109 -68c80 -16 146 -46 133 -140
c-15 -106 -115 -147 -208 -147c-79 0 -133 21 -169 87z" />
    <glyph glyph-name="t" unicode="t" horiz-adv-x="352" 
d="M396 468l-9 -66h-138l-33 -234c-9 -60 -15 -108 54 -108c23 0 49 5 72 16l-7 -71c-29 -12 -65 -17 -94 -17c-111 0 -120 60 -107 157l37 257h-102l9 66h102l18 133h78l-18 -133h138z" />
    <glyph glyph-name="u" unicode="u" 
d="M548 468l-50 -357c-6 -43 -8 -80 -12 -111h-74c4 25 5 51 9 77h-2c-28 -46 -92 -89 -169 -89c-123 0 -167 78 -151 191l41 289h78l-40 -281c-11 -78 16 -127 89 -127c101 0 156 73 171 180l32 228h78z" />
    <glyph glyph-name="v" unicode="v" horiz-adv-x="482" 
d="M538 468l-251 -468h-86l-125 468h91l94 -367h2l191 367h84z" />
    <glyph glyph-name="w" unicode="w" horiz-adv-x="741" 
d="M793 468l-217 -468h-77l-82 360h-2l-169 -360h-80l-86 468h86l56 -360h2l172 360h82l72 -360h2l157 360h84z" />
    <glyph glyph-name="x" unicode="x" horiz-adv-x="500" 
d="M3 0l227 252l-137 216h102l100 -168l141 168h95l-192 -216l158 -252h-103l-120 202l-174 -202h-97z" />
    <glyph glyph-name="y" unicode="y" horiz-adv-x="482" 
d="M538 468l-307 -575c-42 -79 -81 -133 -175 -133c-22 0 -48 2 -68 12l20 68c15 -6 31 -8 53 -8c51 0 75 31 98 77l45 88l-128 471h91l93 -367h2l191 367h85z" />
    <glyph glyph-name="z" unicode="z" horiz-adv-x="444" 
d="M30 0l9 61l323 341h-263l9 66h365l-9 -60l-323 -342h282l-9 -66h-384z" />
    <glyph glyph-name="braceleft" unicode="{" horiz-adv-x="333" 
d="M397 732l-9 -60h-54c-42 0 -54 -39 -60 -79l-24 -176c-13 -90 -81 -122 -104 -128l-1 -2c23 -3 82 -30 68 -129l-24 -175c-6 -39 -4 -79 38 -79h54l-9 -60h-70c-50 0 -99 44 -87 125l24 175c10 72 -28 114 -70 114l9 60c42 0 92 44 102 113l24 176c12 81 76 125 123 125
h70z" />
    <glyph glyph-name="bar" unicode="|" horiz-adv-x="368" 
d="M202 832h65v-1109h-65v1109z" />
    <glyph glyph-name="braceright" unicode="}" horiz-adv-x="333" 
d="M133 672l9 60h70c47 0 99 -44 87 -125l-24 -176c-10 -69 28 -113 70 -113l-9 -60c-42 0 -92 -42 -102 -114l-24 -175c-12 -81 -73 -125 -123 -125h-70l9 60h54c42 0 54 40 60 79l24 175c14 99 81 126 104 129l1 2c-23 6 -81 38 -68 128l24 176c6 40 4 79 -38 79h-54z" />
    <glyph glyph-name="asciitilde" unicode="~" horiz-adv-x="666" 
d="M582 372l27 -48c-37 -42 -77 -88 -139 -88c-36 0 -67 15 -98 30c-35 17 -66 38 -109 38c-44 0 -73 -35 -94 -70l-26 48c36 42 75 88 137 88c36 0 67 -15 98 -30c35 -17 66 -38 109 -38c44 0 73 35 95 70z" />
    <glyph glyph-name="exclamdown" unicode="&#xa1;" horiz-adv-x="278" 
d="M66 -222l71 510h84l-71 -510h-84zM191 372c-33 0 -56 27 -51 60c4 33 37 60 68 60s56 -27 52 -60c-5 -33 -36 -60 -69 -60z" />
    <glyph glyph-name="cent" unicode="&#xa2;" 
d="M286 61l48 345c-86 -16 -138 -87 -150 -172s27 -155 102 -173zM266 -78l9 66c-124 16 -194 113 -175 246c18 131 116 231 244 243l10 69h48l-10 -66c63 -3 118 -27 154 -74l-70 -55c-24 35 -54 53 -94 57l-49 -348c45 3 81 22 112 58l50 -55c-48 -48 -109 -71 -172 -75
l-9 -66h-48z" />
    <glyph glyph-name="sterling" unicode="&#xa3;" 
d="M57 0l11 78h108l35 252h-96l10 66h96l11 80c24 174 127 244 248 244c60 0 116 -19 152 -62l-63 -59c-27 30 -57 49 -101 49c-99 0 -138 -70 -152 -174l-11 -78h162l-10 -66h-162l-35 -252h246l-11 -78h-438z" />
    <glyph glyph-name="fraction" unicode="&#x2044;" horiz-adv-x="167" 
d="M-166 0l548 740l51 -32l-548 -740z" />
    <glyph glyph-name="yen" unicode="&#xa5;" 
d="M236 0l24 174h-159l9 60h159l10 71l-7 16h-150l9 60h114l-145 327h100l132 -327l224 327h100l-237 -327h114l-9 -60h-150l-11 -16l-10 -71h159l-9 -60h-159l-24 -174h-84z" />
    <glyph glyph-name="florin" unicode="&#x192;" 
d="M491 425l-10 -66h-126l-113 -344c-31 -93 -79 -159 -186 -159c-30 0 -60 8 -83 24l45 63c14 -10 32 -15 50 -15c64 0 83 58 99 107l105 324h-108l10 66h121l36 110c32 96 75 185 190 185c35 0 69 -10 96 -28l-45 -62c-16 10 -35 18 -55 18c-65 0 -87 -62 -104 -113
l-36 -110h114z" />
    <glyph glyph-name="section" unicode="&#xa7;" 
d="M552 632l-81 -41c-10 44 -51 63 -94 63c-51 0 -109 -26 -117 -86c-5 -33 7 -57 34 -72l91 -49c64 -33 141 -75 129 -165c-9 -61 -51 -105 -105 -133c39 -28 60 -67 52 -123c-17 -115 -126 -170 -228 -170c-86 0 -159 38 -180 123l82 36c10 -61 54 -87 114 -87
c56 0 112 27 121 92c8 57 -47 80 -86 100l-113 64c-43 24 -63 69 -56 122c10 70 59 112 121 140c-43 26 -68 64 -61 118c15 107 119 162 215 162c69 0 140 -27 162 -94zM268 226l83 -43c35 14 72 49 77 87c8 56 -43 85 -82 106l-54 29c-41 -16 -90 -35 -97 -86
c-7 -52 35 -74 73 -93z" />
    <glyph glyph-name="currency" unicode="&#xa4;" 
d="M156 354c-13 -93 53 -178 147 -178s184 85 197 178c13 97 -53 178 -147 178s-184 -81 -197 -178zM49 148l62 55c-29 44 -41 96 -33 151c8 57 34 110 75 152l-46 54l50 44l46 -53c49 34 104 53 160 53s105 -19 144 -53l62 53l38 -44l-62 -54c29 -42 41 -95 33 -152
c-8 -55 -34 -107 -75 -151l46 -55l-50 -44l-47 55c-48 -34 -104 -55 -159 -55s-105 21 -145 55l-61 -55z" />
    <glyph glyph-name="quotesingle" unicode="'" horiz-adv-x="278" 
d="M169 468l34 240h72l-34 -240h-72z" />
    <glyph glyph-name="quotedblleft" unicode="&#x201c;" horiz-adv-x="519" 
d="M153 468l116 240h76l-101 -240h-91zM340 468l116 240h76l-101 -240h-91z" />
    <glyph glyph-name="guillemotleft" unicode="&#xab;" horiz-adv-x="500" 
d="M315 418l-142 -178l92 -178l-60 -36l-113 214l173 214zM501 418l-142 -178l92 -178l-60 -36l-113 214l173 214z" />
    <glyph glyph-name="guilsinglleft" unicode="&#x2039;" horiz-adv-x="314" 
d="M315 418l-142 -178l92 -178l-60 -36l-113 214l173 214z" />
    <glyph glyph-name="guilsinglright" unicode="&#x203a;" horiz-adv-x="314" 
d="M67 62l142 178l-92 178l60 36l113 -214l-173 -214z" />
    <glyph glyph-name="endash" unicode="&#x2013;" horiz-adv-x="500" 
d="M539 276l-10 -72h-500l10 72h500z" />
    <glyph glyph-name="dagger" unicode="&#x2020;" 
d="M417 708l-29 -203h204l-9 -66h-204l-80 -565h-78l80 565h-204l9 66h204l29 203h78z" />
    <glyph glyph-name="daggerdbl" unicode="&#x2021;" 
d="M417 708l-27 -192h198l-10 -66h-198l-44 -318h198l-10 -66h-198l-27 -192h-78l27 192h-198l10 66h198l44 318h-198l10 66h198l27 192h78z" />
    <glyph glyph-name="periodcentered" unicode="&#xb7;" horiz-adv-x="278" 
d="M191 369c33 0 56 -27 51 -60c-4 -33 -37 -60 -68 -60s-56 27 -52 60c5 33 36 60 69 60z" />
    <glyph glyph-name="paragraph" unicode="&#xb6;" horiz-adv-x="600" 
d="M274 -126l62 442c-122 0 -197 82 -182 186c18 130 117 206 257 206h243l-118 -834h-72l108 768h-118l-108 -768h-72z" />
    <glyph glyph-name="bullet" unicode="&#x2022;" horiz-adv-x="500" 
d="M123 354c14 98 104 177 202 177s166 -79 152 -177s-104 -177 -202 -177s-166 79 -152 177z" />
    <glyph glyph-name="quotesinglbase" unicode="&#x201a;" horiz-adv-x="278" 
d="M232 102l-115 -240h-76l100 240h91z" />
    <glyph glyph-name="quotedblbase" unicode="&#x201e;" horiz-adv-x="519" 
d="M259 102l-115 -240h-76l100 240h91zM446 102l-115 -240h-76l100 240h91z" />
    <glyph glyph-name="quotedblright" unicode="&#x201d;" horiz-adv-x="519" 
d="M345 708l-116 -240h-76l101 240h91zM532 708l-116 -240h-76l101 240h91z" />
    <glyph glyph-name="guillemotright" unicode="&#xbb;" horiz-adv-x="500" 
d="M67 62l142 178l-92 178l60 36l113 -214l-173 -214zM253 62l142 178l-92 178l60 36l113 -214l-173 -214z" />
    <glyph glyph-name="ellipsis" unicode="&#x2026;" horiz-adv-x="1000" 
d="M183 114c33 0 56 -27 52 -60c-5 -33 -38 -60 -69 -60s-56 27 -51 60c4 33 35 60 68 60zM516 114c33 0 56 -27 52 -60c-5 -33 -38 -60 -69 -60s-56 27 -51 60c4 33 35 60 68 60zM849 114c33 0 56 -27 52 -60c-5 -33 -38 -60 -69 -60s-56 27 -51 60c4 33 35 60 68 60z" />
    <glyph glyph-name="perthousand" unicode="&#x2030;" horiz-adv-x="1018" 
d="M346 145c12 85 94 157 179 157s147 -72 135 -157c-12 -87 -92 -157 -179 -157s-147 70 -135 157zM412 145c-6 -48 31 -91 79 -91s97 43 103 91c7 48 -30 91 -78 91s-97 -43 -104 -91zM706 145c12 85 94 157 179 157s147 -72 135 -157c-12 -87 -92 -157 -179 -157
s-147 70 -135 157zM772 144c-7 -48 30 -91 78 -91s97 43 104 91s-30 91 -78 91s-97 -43 -104 -91zM97 563c12 85 94 157 179 157s147 -72 135 -157c-12 -87 -92 -157 -179 -157s-147 70 -135 157zM163 563c-7 -48 30 -91 78 -91s97 43 104 91s-30 91 -78 91
s-97 -43 -104 -91zM81 0l548 740l51 -32l-548 -740z" />
    <glyph glyph-name="questiondown" unicode="&#xbf;" horiz-adv-x="482" 
d="M357 -59l88 -10c-33 -109 -128 -171 -237 -171s-186 63 -170 178c13 88 74 137 141 193c48 40 56 54 64 111l6 46h84l-8 -63c-11 -74 -30 -89 -89 -141c-47 -42 -98 -80 -107 -143c-9 -64 24 -109 90 -109c67 0 119 44 138 109zM303 372c-33 0 -56 27 -51 60
c4 33 37 60 68 60s56 -27 52 -60c-5 -33 -36 -60 -69 -60z" />
    <glyph glyph-name="grave" unicode="`" horiz-adv-x="240" 
d="M185 708l83 -144h-71l-122 144h110z" />
    <glyph glyph-name="acute" unicode="&#xb4;" horiz-adv-x="240" 
d="M130 564l125 144h110l-164 -144h-71z" />
    <glyph glyph-name="circumflex" unicode="&#x2c6;" horiz-adv-x="240" 
d="M42 564l132 144h91l91 -144h-81l-64 102l-93 -102h-76z" />
    <glyph glyph-name="tilde" unicode="&#x2dc;" horiz-adv-x="240" 
d="M82 576h-48c15 52 56 104 115 104c30 0 55 -12 80 -23c19 -8 31 -17 52 -17c27 0 44 20 54 44h48c-15 -51 -48 -104 -107 -104c-28 0 -55 11 -79 21c-18 8 -40 19 -63 19c-25 0 -43 -22 -52 -44z" />
    <glyph glyph-name="macron" unicode="&#xaf;" horiz-adv-x="240" 
d="M351 660l-9 -60h-276l9 60h276z" />
    <glyph glyph-name="breve" unicode="&#x2d8;" horiz-adv-x="240" 
d="M66 702h49c2 -52 41 -78 92 -78c58 0 95 20 117 78h48c-22 -87 -88 -132 -173 -132c-83 0 -141 45 -133 132z" />
    <glyph glyph-name="dotaccent" unicode="&#x2d9;" horiz-adv-x="240" 
d="M216 684c30 0 51 -25 47 -54c-5 -30 -32 -54 -62 -54c-31 0 -51 24 -46 54c4 29 31 54 61 54z" />
    <glyph glyph-name="dieresis" unicode="&#xa8;" horiz-adv-x="240" 
d="M117 684c30 0 51 -25 47 -54c-5 -30 -32 -54 -62 -54s-51 24 -46 54c4 29 31 54 61 54zM315 684c30 0 51 -25 47 -54c-5 -30 -32 -54 -62 -54s-51 24 -46 54c4 29 31 54 61 54z" />
    <glyph glyph-name="ring" unicode="&#x2da;" horiz-adv-x="240" 
d="M112 645c7 53 56 99 113 99c58 0 92 -46 85 -99c-8 -54 -56 -99 -113 -99s-93 45 -85 99zM154 645c-5 -33 20 -57 49 -57s60 24 65 57c4 32 -20 57 -49 57s-61 -25 -65 -57z" />
    <glyph glyph-name="cedilla" unicode="&#xb8;" horiz-adv-x="240" 
d="M158 0l-54 -64c9 1 20 4 36 4c35 0 77 -21 70 -69c-9 -64 -75 -88 -129 -88c-34 0 -69 7 -97 21l23 37c20 -10 44 -16 69 -16c26 0 63 9 67 41c4 28 -23 38 -46 38c-13 0 -28 -4 -41 -8l-17 19l74 85h45z" />
    <glyph glyph-name="hungarumlaut" unicode="&#x2dd;" horiz-adv-x="240" 
d="M274 708l-150 -144h-67l121 144h96zM445 708l-164 -144h-68l130 144h102z" />
    <glyph glyph-name="ogonek" unicode="&#x2db;" horiz-adv-x="240" 
d="M162 -141l15 -41c-28 -24 -63 -39 -97 -39c-49 0 -88 34 -81 85c8 56 64 109 110 136h51c-33 -21 -85 -67 -92 -115c-4 -27 9 -47 41 -46c17 0 39 8 53 20z" />
    <glyph glyph-name="caron" unicode="&#x2c7;" horiz-adv-x="240" 
d="M376 708l-131 -144h-91l-90 144h81l63 -102l92 102h76z" />
    <glyph glyph-name="emdash" unicode="&#x2014;" horiz-adv-x="1000" 
d="M29 204l10 72h1000l-10 -72h-1000z" />
    <glyph glyph-name="AE" unicode="&#xc6;" horiz-adv-x="944" 
d="M-10 0l560 708h435l-11 -78h-294l-32 -222h276l-11 -78h-276l-35 -252h306l-11 -78h-390l27 192h-293l-150 -192h-101zM545 270l51 360h-12l-282 -360h243z" />
    <glyph glyph-name="ordfeminine" unicode="&#xaa;" horiz-adv-x="337" 
d="M384 601l-18 -128c-1 -14 -1 -28 -2 -43h-61c1 16 2 30 4 45h-2c-23 -37 -59 -51 -107 -51c-61 0 -101 29 -93 88c13 93 130 95 197 95h23l2 14c3 19 -17 45 -66 45c-39 0 -78 -16 -94 -31l-25 42c35 29 82 43 126 43c95 0 128 -40 116 -119zM319 559h-48
c-32 0 -93 0 -100 -46c-3 -22 19 -35 52 -35c54 0 89 35 93 64z" />
    <glyph glyph-name="Lslash" unicode="&#x141;" horiz-adv-x="500" 
d="M88 0l31 221l-87 -67l11 79l87 67l58 408h84l-48 -336l242 186l-11 -79l-242 -186l-30 -215h324l-11 -78h-408z" />
    <glyph glyph-name="Oslash" unicode="&#xd8;" horiz-adv-x="834" 
d="M707 550l-451 -426c41 -40 99 -64 169 -64c166 0 299 131 322 294c10 75 -4 144 -40 196zM223 164l450 425c-41 37 -97 59 -165 59c-166 0 -298 -131 -321 -294c-11 -73 3 -140 36 -190zM62 11l93 88c-51 66 -72 154 -58 255c30 214 207 372 422 372
c89 0 163 -27 219 -75l92 87l36 -38l-91 -86c52 -65 76 -156 62 -260c-30 -214 -208 -372 -423 -372c-93 0 -169 29 -224 79l-94 -88z" />
    <glyph glyph-name="OE" unicode="&#x152;" horiz-adv-x="963" 
d="M691 630l-32 -222h282l-11 -78h-282l-35 -252h306l-11 -78h-460c-260 0 -369 170 -343 354s183 354 443 354h454l-11 -78h-300zM529 78l78 552h-66c-212 0 -327 -140 -346 -276s56 -276 268 -276h66z" />
    <glyph glyph-name="ordmasculine" unicode="&#xba;" horiz-adv-x="386" 
d="M111 573c12 87 89 147 183 147s155 -60 143 -147c-13 -90 -90 -149 -184 -149s-155 59 -142 149zM177 573c-7 -50 23 -95 83 -95s104 46 111 95c6 47 -24 93 -84 93s-104 -46 -110 -93z" />
    <glyph glyph-name="ae" unicode="&#xe6;" horiz-adv-x="852" 
d="M752 131l53 -46c-65 -71 -135 -97 -222 -97c-91 0 -145 53 -163 101c-48 -74 -123 -101 -202 -101c-81 0 -167 40 -153 141c18 129 154 147 255 147h96l1 12c10 68 -21 120 -100 120c-57 0 -97 -15 -143 -46l-43 52c57 44 128 66 196 66c64 0 125 -21 151 -79
c62 57 120 79 177 79c132 0 210 -90 188 -245l-3 -25h-361c-11 -82 36 -150 114 -150c67 0 116 24 159 71zM407 210h-117c-55 0 -132 -15 -140 -78c-8 -53 46 -72 98 -72c81 0 145 56 157 137zM488 276h277c8 79 -37 132 -123 132c-77 0 -142 -67 -154 -132z" />
    <glyph glyph-name="dotlessi" unicode="&#x131;" horiz-adv-x="240" 
d="M81 0l66 468h78l-66 -468h-78z" />
    <glyph glyph-name="lslash" unicode="&#x142;" horiz-adv-x="240" 
d="M81 0l43 308l-92 -81l11 82l93 81l51 366h78l-40 -288l92 81l-11 -81l-93 -81l-54 -387h-78z" />
    <glyph glyph-name="oslash" unicode="&#xf8;" horiz-adv-x="594" 
d="M180 130l273 243c-23 22 -58 35 -99 35c-101 0 -176 -76 -190 -174c-6 -40 0 -76 16 -104zM480 338l-274 -243c23 -22 57 -35 99 -35c101 0 177 76 191 174c6 40 0 76 -16 104zM37 2l78 70c-31 41 -44 97 -35 162c20 146 140 246 284 246c62 0 115 -19 152 -51l77 69
l29 -32l-76 -69c30 -42 43 -98 34 -163c-21 -146 -141 -246 -285 -246c-62 0 -114 19 -150 52l-78 -70z" />
    <glyph glyph-name="oe" unicode="&#x153;" horiz-adv-x="907" 
d="M901 210h-361c-11 -82 36 -150 114 -150c67 0 116 24 159 71l53 -46c-65 -71 -135 -97 -222 -97c-67 0 -129 28 -160 96c-57 -64 -123 -96 -206 -96c-148 0 -230 98 -209 246c20 141 133 246 275 246c83 0 141 -28 182 -94c57 62 121 94 190 94c132 0 210 -90 188 -245z
M153 234c-13 -90 27 -174 131 -174c106 0 173 78 187 174c13 92 -29 174 -134 174s-171 -79 -184 -174zM549 276h277c8 79 -37 132 -123 132c-77 0 -142 -67 -154 -132z" />
    <glyph glyph-name="germandbls" unicode="&#xdf;" horiz-adv-x="593" 
d="M74 0l76 540c17 122 94 228 251 228c109 0 187 -64 171 -178c-11 -76 -58 -133 -132 -158l-1 -2c110 -11 156 -105 141 -212c-20 -140 -135 -230 -272 -230c-21 0 -41 2 -60 9l10 71c16 -6 32 -8 50 -8c100 0 175 66 189 165c15 107 -49 170 -153 170h-23l9 66h22
c72 0 130 46 141 120c10 72 -37 115 -106 115c-106 0 -148 -78 -160 -163l-75 -533h-78z" />
    <glyph glyph-name="onesuperior" unicode="&#xb9;" horiz-adv-x="361" 
d="M214 289l49 352h-2l-90 -66l-27 46l137 93h58l-59 -425h-66z" />
    <glyph glyph-name="logicalnot" unicode="&#xac;" horiz-adv-x="666" 
d="M121 348l9 66h522l-39 -278h-66l30 212h-456z" />
    <glyph glyph-name="mu" unicode="&#xb5;" 
d="M548 468l-50 -357c-6 -43 -8 -80 -12 -111h-74c4 25 5 51 9 77h-2c-28 -46 -92 -89 -169 -89c-42 0 -68 7 -96 25l-34 -241h-78l98 696h78l-40 -281c-11 -78 16 -127 89 -127c101 0 156 73 171 180l32 228h78z" />
    <glyph glyph-name="trademark" unicode="&#x2122;" horiz-adv-x="990" 
d="M236 296l48 346h-130l10 66h326l-10 -66h-130l-48 -346h-66zM515 296l58 412h105l79 -313l167 313h102l-58 -412h-66l48 346h-2l-184 -346h-45l-88 346h-2l-48 -346h-66z" />
    <glyph glyph-name="Eth" unicode="&#xd0;" horiz-adv-x="741" 
d="M132 402l43 306h272c139 0 333 -93 297 -354c-37 -261 -258 -354 -397 -354h-272l47 336h-72l10 66h72zM248 630l-32 -228h252l-10 -66h-252l-36 -258h160c162 0 296 82 324 276c27 194 -84 276 -246 276h-160z" />
    <glyph glyph-name="onehalf" unicode="&#xbd;" horiz-adv-x="834" 
d="M132 0l548 740l51 -32l-548 -740zM190 289l49 353h-2l-90 -67l-27 46l137 93h58l-59 -425h-66zM504 0l8 58l189 151c42 33 67 55 73 97c6 44 -24 71 -62 71c-42 0 -79 -26 -92 -67l-63 5c24 80 87 116 161 116c76 0 134 -39 122 -125c-10 -68 -58 -106 -110 -146
l-134 -104v-2h213l-8 -54h-297z" />
    <glyph glyph-name="plusminus" unicode="&#xb1;" horiz-adv-x="666" 
d="M118 330l10 66h228l23 168h66l-23 -168h228l-10 -66h-228l-23 -168h-66l23 168h-228zM78 42l9 66h522l-9 -66h-522z" />
    <glyph glyph-name="Thorn" unicode="&#xde;" horiz-adv-x="593" 
d="M88 0l100 708h84l-18 -125h126c130 0 241 -46 221 -194c-22 -155 -160 -196 -260 -196h-142l-27 -193h-84zM243 505l-33 -234h142c84 0 147 38 159 117c11 79 -42 117 -126 117h-142z" />
    <glyph glyph-name="onequarter" unicode="&#xbc;" horiz-adv-x="834" 
d="M799 425l-40 -281h56l-7 -54h-56l-13 -90h-66l13 90h-195l9 63l221 272h78zM149 0l548 740l51 -32l-548 -740zM693 144l29 203h-2l-162 -203h135zM196 289l49 353h-2l-90 -67l-27 46l137 93h58l-59 -425h-66z" />
    <glyph glyph-name="divide" unicode="&#xf7;" horiz-adv-x="666" 
d="M110 270l9 66h522l-9 -66h-522zM342 468c4 32 34 57 65 57s53 -26 49 -57c-5 -32 -34 -57 -65 -57s-54 26 -49 57zM295 138c5 32 34 57 65 57s54 -26 49 -57c-4 -32 -34 -57 -65 -57s-53 26 -49 57z" />
    <glyph glyph-name="brokenbar" unicode="&#xa6;" horiz-adv-x="367" 
d="M202 749h64v-388h-64v388zM202 194h64v-387h-64v387z" />
    <glyph glyph-name="degree" unicode="&#xb0;" horiz-adv-x="400" 
d="M138 577c11 80 83 143 163 143s134 -63 123 -143s-83 -143 -163 -143s-134 63 -123 143zM192 577c-6 -41 24 -89 77 -89s95 48 101 89s-23 89 -76 89s-96 -48 -102 -89z" />
    <glyph glyph-name="thorn" unicode="&#xfe;" horiz-adv-x="611" 
d="M38 -228l138 984h78l-50 -356h2c50 50 111 80 179 80c147 0 232 -104 212 -246c-20 -140 -138 -246 -269 -246c-84 0 -145 42 -166 95h-2l-44 -311h-78zM181 234c-14 -98 40 -174 141 -174s177 76 191 174s-41 174 -142 174s-176 -76 -190 -174z" />
    <glyph glyph-name="threequarters" unicode="&#xbe;" horiz-adv-x="834" 
d="M813 425l-40 -281h56l-7 -54h-56l-13 -90h-66l13 90h-195l9 63l221 272h78zM188 0l548 740l51 -32l-548 -740zM707 144l29 203h-2l-161 -201l-1 -2h135zM203 484l8 54h16c34 0 94 9 102 69c6 43 -23 59 -62 59c-35 0 -67 -10 -87 -42l-52 25c32 51 87 71 146 71
c73 0 132 -38 122 -111c-7 -44 -45 -84 -93 -97v-2c58 -8 86 -53 79 -106c-11 -79 -87 -121 -169 -121c-69 0 -122 24 -135 92l58 23c6 -27 29 -61 84 -61c44 0 90 23 96 70c9 63 -49 77 -97 77h-16z" />
    <glyph glyph-name="twosuperior" unicode="&#xb2;" horiz-adv-x="361" 
d="M73 289l8 58l189 151c42 33 67 55 73 97c6 44 -24 71 -62 71c-42 0 -79 -26 -93 -67l-62 5c23 80 86 116 160 116c76 0 135 -39 123 -125c-10 -68 -58 -106 -110 -146l-135 -104v-2h213l-7 -54h-297z" />
    <glyph glyph-name="registered" unicode="&#xae;" horiz-adv-x="800" 
d="M277 137l61 435h164c103 0 147 -41 135 -124c-11 -79 -66 -112 -132 -119l98 -192h-71l-91 187h-71l-27 -187h-66zM397 518l-20 -140h68c59 0 117 3 126 73c9 60 -42 67 -87 67h-87zM78 354c30 212 221 372 424 372c202 0 350 -160 320 -372s-223 -372 -425 -372
c-203 0 -349 160 -319 372zM144 354c-26 -180 90 -318 261 -318c170 0 325 138 351 318c25 180 -92 318 -262 318c-171 0 -325 -138 -350 -318z" />
    <glyph glyph-name="minus" unicode="&#x2212;" horiz-adv-x="666" 
d="M119 336h522l-9 -66h-522z" />
    <glyph glyph-name="eth" unicode="&#xf0;" horiz-adv-x="594" 
d="M214 610l113 53c-23 26 -51 53 -77 76l74 40c26 -24 57 -54 80 -80l115 54l40 -39l-119 -56c92 -100 169 -216 144 -393c-23 -162 -121 -277 -289 -277c-144 0 -236 100 -215 246c20 146 140 246 284 246c51 0 95 -16 124 -49l1 2c-27 69 -75 132 -124 190l-115 -54z
M164 234c-14 -98 40 -174 141 -174s177 76 191 174s-41 174 -142 174s-176 -76 -190 -174z" />
    <glyph glyph-name="multiply" unicode="&#xd7;" horiz-adv-x="666" 
d="M217 544l165 -193l220 193l42 -47l-221 -194l167 -192l-55 -49l-166 194l-220 -194l-42 47l221 194l-166 192z" />
    <glyph glyph-name="threesuperior" unicode="&#xb3;" horiz-adv-x="361" 
d="M208 484l8 54h17c33 0 93 9 101 69c6 43 -23 59 -62 59c-35 0 -67 -10 -87 -42l-52 25c32 51 87 71 146 71c73 0 132 -38 122 -111c-7 -44 -45 -84 -93 -97v-2c58 -8 86 -53 79 -106c-11 -79 -87 -121 -169 -121c-69 0 -122 24 -134 92l57 23c6 -27 29 -61 84 -61
c44 0 90 23 96 70c9 63 -49 77 -97 77h-16z" />
    <glyph glyph-name="copyright" unicode="&#xa9;" horiz-adv-x="800" 
d="M578 282h62c-35 -96 -116 -156 -207 -156c-135 0 -209 98 -190 228c18 132 114 227 251 227c94 0 164 -52 165 -151h-61c-3 55 -45 97 -111 97c-99 0 -164 -75 -178 -173c-13 -92 36 -174 131 -174c66 0 120 44 138 102zM78 354c30 212 221 372 424 372
c202 0 350 -160 320 -372s-223 -372 -425 -372c-203 0 -349 160 -319 372zM144 354c-26 -180 90 -318 261 -318c170 0 325 138 351 318c25 180 -92 318 -262 318c-171 0 -325 -138 -350 -318z" />
    <glyph glyph-name="Aacute" unicode="&#xc1;" horiz-adv-x="704" 
d="M6 0l412 708h79l201 -708h-98l-48 174h-354l-97 -174h-95zM531 252l-91 348h-2l-196 -348h289zM390 758l124 144h110l-163 -144h-71z" />
    <glyph glyph-name="Acircumflex" unicode="&#xc2;" horiz-adv-x="704" 
d="M6 0l412 708h79l201 -708h-98l-48 174h-354l-97 -174h-95zM531 252l-91 348h-2l-196 -348h289zM302 758l131 144h91l92 -144h-81l-65 102l-92 -102h-76z" />
    <glyph glyph-name="Adieresis" unicode="&#xc4;" horiz-adv-x="704" 
d="M6 0l412 708h79l201 -708h-98l-48 174h-354l-97 -174h-95zM531 252l-91 348h-2l-196 -348h289zM376 878c30 0 51 -25 47 -54c-4 -30 -32 -54 -62 -54s-50 24 -46 54c4 29 31 54 61 54zM574 878c30 0 51 -25 47 -54c-4 -30 -32 -54 -62 -54s-50 24 -46 54
c4 29 31 54 61 54z" />
    <glyph glyph-name="Agrave" unicode="&#xc0;" horiz-adv-x="704" 
d="M6 0l412 708h79l201 -708h-98l-48 174h-354l-97 -174h-95zM531 252l-91 348h-2l-196 -348h289zM444 902l84 -144h-71l-123 144h110z" />
    <glyph glyph-name="Aring" unicode="&#xc5;" horiz-adv-x="704" 
d="M6 0l412 708h79l201 -708h-98l-48 174h-354l-97 -174h-95zM531 252l-91 348h-2l-196 -348h289zM370 829c7 53 55 99 112 99c58 0 93 -46 86 -99c-8 -54 -56 -99 -113 -99s-93 45 -85 99zM412 829c-5 -33 20 -57 49 -57s60 24 65 57c4 32 -20 57 -49 57s-61 -25 -65 -57z
" />
    <glyph glyph-name="Atilde" unicode="&#xc3;" horiz-adv-x="704" 
d="M6 0l412 708h79l201 -708h-98l-48 174h-354l-97 -174h-95zM531 252l-91 348h-2l-196 -348h289zM341 770h-48c16 52 56 104 115 104c30 0 55 -12 81 -23c18 -8 30 -17 51 -17c27 0 44 20 54 44h48c-15 -51 -48 -104 -107 -104c-28 0 -55 11 -78 21c-19 8 -41 19 -64 19
c-25 0 -43 -22 -52 -44z" />
    <glyph glyph-name="Ccedilla" unicode="&#xc7;" horiz-adv-x="704" 
d="M743 615l-80 -53c-34 57 -97 86 -165 86c-158 0 -289 -139 -311 -294c-23 -164 69 -294 228 -294c86 0 160 35 219 99l56 -53c-75 -85 -173 -124 -286 -124l-38 -46c9 1 20 4 36 4c35 0 77 -21 70 -69c-9 -64 -75 -88 -129 -88c-34 0 -69 7 -97 21l23 37
c20 -10 44 -16 69 -16c26 0 63 9 67 41c4 28 -23 38 -46 38c-13 0 -28 -4 -41 -8l-17 19l61 70c-178 19 -293 169 -265 369c29 208 202 372 412 372c96 0 185 -33 234 -111z" />
    <glyph glyph-name="Eacute" unicode="&#xc9;" horiz-adv-x="593" 
d="M88 0l100 708h445l-11 -78h-361l-32 -222h337l-11 -78h-337l-35 -252h379l-11 -78h-463zM335 758l124 144h110l-163 -144h-71z" />
    <glyph glyph-name="Ecircumflex" unicode="&#xca;" horiz-adv-x="593" 
d="M88 0l100 708h445l-11 -78h-361l-32 -222h337l-11 -78h-337l-35 -252h379l-11 -78h-463zM247 758l131 144h91l92 -144h-81l-65 102l-92 -102h-76z" />
    <glyph glyph-name="Edieresis" unicode="&#xcb;" horiz-adv-x="593" 
d="M88 0l100 708h445l-11 -78h-361l-32 -222h337l-11 -78h-337l-35 -252h379l-11 -78h-463zM321 878c30 0 51 -25 47 -54c-4 -30 -32 -54 -62 -54s-50 24 -46 54c4 29 31 54 61 54zM519 878c30 0 51 -25 47 -54c-4 -30 -32 -54 -62 -54s-50 24 -46 54c4 29 31 54 61 54z" />
    <glyph glyph-name="Egrave" unicode="&#xc8;" horiz-adv-x="593" 
d="M88 0l100 708h445l-11 -78h-361l-32 -222h337l-11 -78h-337l-35 -252h379l-11 -78h-463zM389 902l84 -144h-71l-123 144h110z" />
    <glyph glyph-name="Iacute" unicode="&#xcd;" horiz-adv-x="260" 
d="M88 0l100 708h84l-100 -708h-84zM168 758l124 144h110l-163 -144h-71z" />
    <glyph glyph-name="Icircumflex" unicode="&#xce;" horiz-adv-x="260" 
d="M88 0l100 708h84l-100 -708h-84zM80 758l131 144h91l92 -144h-81l-65 102l-92 -102h-76z" />
    <glyph glyph-name="Idieresis" unicode="&#xcf;" horiz-adv-x="260" 
d="M88 0l100 708h84l-100 -708h-84zM154 878c30 0 51 -25 47 -54c-4 -30 -32 -54 -62 -54s-50 24 -46 54c4 29 31 54 61 54zM352 878c30 0 51 -25 47 -54c-4 -30 -32 -54 -62 -54s-50 24 -46 54c4 29 31 54 61 54z" />
    <glyph glyph-name="Igrave" unicode="&#xcc;" horiz-adv-x="260" 
d="M88 0l100 708h84l-100 -708h-84zM222 902l84 -144h-71l-123 144h110z" />
    <glyph glyph-name="Ntilde" unicode="&#xd1;" horiz-adv-x="778" 
d="M88 0l100 708h106l327 -588h2l83 588h84l-100 -708h-106l-327 588h-2l-83 -588h-84zM378 770h-48c16 52 56 104 115 104c30 0 55 -12 81 -23c18 -8 30 -17 51 -17c27 0 44 20 54 44h48c-15 -51 -48 -104 -107 -104c-28 0 -55 11 -78 21c-19 8 -41 19 -64 19
c-25 0 -43 -22 -52 -44z" />
    <glyph glyph-name="Oacute" unicode="&#xd3;" horiz-adv-x="834" 
d="M414 -18c-215 0 -347 158 -317 372s207 372 422 372s348 -158 318 -372s-208 -372 -423 -372zM425 60c166 0 299 131 322 294s-73 294 -239 294s-298 -131 -321 -294s72 -294 238 -294zM455 758l124 144h110l-163 -144h-71z" />
    <glyph glyph-name="Ocircumflex" unicode="&#xd4;" horiz-adv-x="834" 
d="M414 -18c-215 0 -347 158 -317 372s207 372 422 372s348 -158 318 -372s-208 -372 -423 -372zM425 60c166 0 299 131 322 294s-73 294 -239 294s-298 -131 -321 -294s72 -294 238 -294zM367 758l131 144h91l92 -144h-81l-65 102l-92 -102h-76z" />
    <glyph glyph-name="Odieresis" unicode="&#xd6;" horiz-adv-x="834" 
d="M414 -18c-215 0 -347 158 -317 372s207 372 422 372s348 -158 318 -372s-208 -372 -423 -372zM425 60c166 0 299 131 322 294s-73 294 -239 294s-298 -131 -321 -294s72 -294 238 -294zM441 878c30 0 51 -25 47 -54c-4 -30 -32 -54 -62 -54s-50 24 -46 54
c4 29 31 54 61 54zM639 878c30 0 51 -25 47 -54c-4 -30 -32 -54 -62 -54s-50 24 -46 54c4 29 31 54 61 54z" />
    <glyph glyph-name="Ograve" unicode="&#xd2;" horiz-adv-x="834" 
d="M414 -18c-215 0 -347 158 -317 372s207 372 422 372s348 -158 318 -372s-208 -372 -423 -372zM425 60c166 0 299 131 322 294s-73 294 -239 294s-298 -131 -321 -294s72 -294 238 -294zM509 902l84 -144h-71l-123 144h110z" />
    <glyph glyph-name="Otilde" unicode="&#xd5;" horiz-adv-x="834" 
d="M414 -18c-215 0 -347 158 -317 372s207 372 422 372s348 -158 318 -372s-208 -372 -423 -372zM425 60c166 0 299 131 322 294s-73 294 -239 294s-298 -131 -321 -294s72 -294 238 -294zM406 770h-48c16 52 56 104 115 104c30 0 55 -12 81 -23c18 -8 30 -17 51 -17
c27 0 44 20 54 44h48c-15 -51 -48 -104 -107 -104c-28 0 -55 11 -78 21c-19 8 -41 19 -64 19c-25 0 -43 -22 -52 -44z" />
    <glyph glyph-name="Scaron" unicode="&#x160;" 
d="M583 643l-77 -60c-22 45 -69 65 -120 65c-74 0 -156 -35 -168 -119c-9 -65 23 -94 131 -130c105 -35 202 -71 183 -210c-20 -141 -151 -207 -279 -207c-82 0 -166 27 -204 98l81 59c22 -52 78 -79 139 -79c72 0 160 42 172 123c12 87 -45 102 -165 144
c-95 33 -165 77 -149 195c19 136 146 204 270 204c79 0 143 -22 186 -83zM561 902l-130 -144h-91l-91 144h81l63 -102l92 102h76z" />
    <glyph glyph-name="Uacute" unicode="&#xda;" horiz-adv-x="704" 
d="M719 708l-62 -438c-22 -154 -113 -288 -308 -288s-248 134 -226 288l62 438h84l-60 -426c-16 -114 10 -222 151 -222s199 108 215 222l60 426h84zM390 758l124 144h110l-163 -144h-71z" />
    <glyph glyph-name="Ucircumflex" unicode="&#xdb;" horiz-adv-x="704" 
d="M719 708l-62 -438c-22 -154 -113 -288 -308 -288s-248 134 -226 288l62 438h84l-60 -426c-16 -114 10 -222 151 -222s199 108 215 222l60 426h84zM302 758l131 144h91l92 -144h-81l-65 102l-92 -102h-76z" />
    <glyph glyph-name="Udieresis" unicode="&#xdc;" horiz-adv-x="704" 
d="M719 708l-62 -438c-22 -154 -113 -288 -308 -288s-248 134 -226 288l62 438h84l-60 -426c-16 -114 10 -222 151 -222s199 108 215 222l60 426h84zM376 878c30 0 51 -25 47 -54c-4 -30 -32 -54 -62 -54s-50 24 -46 54c4 29 31 54 61 54zM574 878c30 0 51 -25 47 -54
c-4 -30 -32 -54 -62 -54s-50 24 -46 54c4 29 31 54 61 54z" />
    <glyph glyph-name="Ugrave" unicode="&#xd9;" horiz-adv-x="704" 
d="M719 708l-62 -438c-22 -154 -113 -288 -308 -288s-248 134 -226 288l62 438h84l-60 -426c-16 -114 10 -222 151 -222s199 108 215 222l60 426h84zM444 902l84 -144h-71l-123 144h110z" />
    <glyph glyph-name="Yacute" unicode="&#xdd;" horiz-adv-x="594" 
d="M255 0l43 305l-207 403h107l154 -320l250 320h101l-321 -403l-43 -305h-84zM335 758l124 144h110l-163 -144h-71z" />
    <glyph glyph-name="Ydieresis" unicode="&#x178;" horiz-adv-x="594" 
d="M255 0l43 305l-207 403h107l154 -320l250 320h101l-321 -403l-43 -305h-84zM321 878c30 0 51 -25 47 -54c-4 -30 -32 -54 -62 -54s-50 24 -46 54c4 29 31 54 61 54zM519 878c30 0 51 -25 47 -54c-4 -30 -32 -54 -62 -54s-50 24 -46 54c4 29 31 54 61 54z" />
    <glyph glyph-name="Zcaron" unicode="&#x17d;" horiz-adv-x="574" 
d="M29 0l11 75l487 555h-403l11 78h505l-11 -72l-487 -558h414l-11 -78h-516zM570 902l-130 -144h-91l-91 144h81l63 -102l92 102h76z" />
    <glyph glyph-name="aacute" unicode="&#xe1;" horiz-adv-x="519" 
d="M167 357l-42 51c55 49 128 72 196 72c138 0 187 -66 169 -198l-29 -201c-3 -27 -5 -57 -4 -81h-75c-2 21 2 50 5 70h-2c-38 -48 -95 -82 -166 -82c-95 0 -167 48 -154 139c22 155 203 164 318 164h30l2 14c9 68 -29 103 -102 103c-50 0 -104 -17 -146 -51zM404 225h-78
c-99 0 -167 -27 -176 -90c-8 -59 33 -81 92 -81c90 0 145 65 157 141zM273 580l124 144h110l-163 -144h-71z" />
    <glyph glyph-name="acircumflex" unicode="&#xe2;" horiz-adv-x="519" 
d="M167 357l-42 51c55 49 128 72 196 72c138 0 187 -66 169 -198l-29 -201c-3 -27 -5 -57 -4 -81h-75c-2 21 2 50 5 70h-2c-38 -48 -95 -82 -166 -82c-95 0 -167 48 -154 139c22 155 203 164 318 164h30l2 14c9 68 -29 103 -102 103c-50 0 -104 -17 -146 -51zM404 225h-78
c-99 0 -167 -27 -176 -90c-8 -59 33 -81 92 -81c90 0 145 65 157 141zM185 580l131 144h91l92 -144h-81l-65 102l-92 -102h-76z" />
    <glyph glyph-name="adieresis" unicode="&#xe4;" horiz-adv-x="519" 
d="M167 357l-42 51c55 49 128 72 196 72c138 0 187 -66 169 -198l-29 -201c-3 -27 -5 -57 -4 -81h-75c-2 21 2 50 5 70h-2c-38 -48 -95 -82 -166 -82c-95 0 -167 48 -154 139c22 155 203 164 318 164h30l2 14c9 68 -29 103 -102 103c-50 0 -104 -17 -146 -51zM404 225h-78
c-99 0 -167 -27 -176 -90c-8 -59 33 -81 92 -81c90 0 145 65 157 141zM259 700c30 0 51 -25 47 -54c-4 -30 -32 -54 -62 -54s-50 24 -46 54c4 29 31 54 61 54zM457 700c30 0 51 -25 47 -54c-4 -30 -32 -54 -62 -54s-50 24 -46 54c4 29 31 54 61 54z" />
    <glyph glyph-name="agrave" unicode="&#xe0;" horiz-adv-x="519" 
d="M167 357l-42 51c55 49 128 72 196 72c138 0 187 -66 169 -198l-29 -201c-3 -27 -5 -57 -4 -81h-75c-2 21 2 50 5 70h-2c-38 -48 -95 -82 -166 -82c-95 0 -167 48 -154 139c22 155 203 164 318 164h30l2 14c9 68 -29 103 -102 103c-50 0 -104 -17 -146 -51zM404 225h-78
c-99 0 -167 -27 -176 -90c-8 -59 33 -81 92 -81c90 0 145 65 157 141zM327 724l84 -144h-71l-123 144h110z" />
    <glyph glyph-name="aring" unicode="&#xe5;" horiz-adv-x="519" 
d="M167 357l-42 51c55 49 128 72 196 72c138 0 187 -66 169 -198l-29 -201c-3 -27 -5 -57 -4 -81h-75c-2 21 2 50 5 70h-2c-38 -48 -95 -82 -166 -82c-95 0 -167 48 -154 139c22 155 203 164 318 164h30l2 14c9 68 -29 103 -102 103c-50 0 -104 -17 -146 -51zM404 225h-78
c-99 0 -167 -27 -176 -90c-8 -59 33 -81 92 -81c90 0 145 65 157 141zM254 661c7 53 56 99 113 99c58 0 92 -46 85 -99c-8 -54 -56 -99 -113 -99s-93 45 -85 99zM296 661c-5 -33 20 -57 49 -57s60 24 65 57c4 32 -20 57 -49 57s-61 -25 -65 -57z" />
    <glyph glyph-name="atilde" unicode="&#xe3;" horiz-adv-x="519" 
d="M167 357l-42 51c55 49 128 72 196 72c138 0 187 -66 169 -198l-29 -201c-3 -27 -5 -57 -4 -81h-75c-2 21 2 50 5 70h-2c-38 -48 -95 -82 -166 -82c-95 0 -167 48 -154 139c22 155 203 164 318 164h30l2 14c9 68 -29 103 -102 103c-50 0 -104 -17 -146 -51zM404 225h-78
c-99 0 -167 -27 -176 -90c-8 -59 33 -81 92 -81c90 0 145 65 157 141zM224 592h-48c16 52 56 104 115 104c30 0 55 -12 81 -23c18 -8 30 -17 51 -17c27 0 44 20 54 44h48c-15 -51 -48 -104 -107 -104c-28 0 -55 11 -78 21c-19 8 -41 19 -64 19c-25 0 -43 -22 -52 -44z" />
    <glyph glyph-name="ccedilla" unicode="&#xe7;" horiz-adv-x="482" 
d="M526 406l-70 -55c-27 40 -63 57 -110 57c-105 0 -169 -78 -182 -174c-14 -96 38 -174 133 -174c51 0 93 18 128 58l50 -55c-48 -47 -108 -71 -169 -73l-46 -54c9 1 20 4 36 4c35 0 77 -21 70 -69c-9 -64 -75 -88 -129 -88c-34 0 -69 7 -97 21l23 37c20 -10 44 -16 69 -16
c26 0 63 9 67 41c4 28 -23 38 -46 38c-13 0 -28 -4 -41 -8l-17 19l66 76c-129 10 -200 108 -181 243c20 142 132 246 276 246c69 0 130 -23 170 -74z" />
    <glyph glyph-name="eacute" unicode="&#xe9;" 
d="M451 131l53 -46c-65 -71 -135 -97 -222 -97c-147 0 -221 110 -202 246c20 145 136 246 274 246c132 0 210 -90 188 -245l-3 -25h-378c-6 -81 46 -150 131 -150c67 0 116 24 159 71zM170 276h294c8 79 -37 132 -123 132s-150 -53 -171 -132zM291 580l124 144h110
l-163 -144h-71z" />
    <glyph glyph-name="ecircumflex" unicode="&#xea;" 
d="M451 131l53 -46c-65 -71 -135 -97 -222 -97c-147 0 -221 110 -202 246c20 145 136 246 274 246c132 0 210 -90 188 -245l-3 -25h-378c-6 -81 46 -150 131 -150c67 0 116 24 159 71zM170 276h294c8 79 -37 132 -123 132s-150 -53 -171 -132zM203 580l131 144h91l92 -144
h-81l-65 102l-92 -102h-76z" />
    <glyph glyph-name="edieresis" unicode="&#xeb;" 
d="M451 131l53 -46c-65 -71 -135 -97 -222 -97c-147 0 -221 110 -202 246c20 145 136 246 274 246c132 0 210 -90 188 -245l-3 -25h-378c-6 -81 46 -150 131 -150c67 0 116 24 159 71zM170 276h294c8 79 -37 132 -123 132s-150 -53 -171 -132zM277 700c30 0 51 -25 47 -54
c-4 -30 -32 -54 -62 -54s-50 24 -46 54c4 29 31 54 61 54zM475 700c30 0 51 -25 47 -54c-4 -30 -32 -54 -62 -54s-50 24 -46 54c4 29 31 54 61 54z" />
    <glyph glyph-name="egrave" unicode="&#xe8;" 
d="M451 131l53 -46c-65 -71 -135 -97 -222 -97c-147 0 -221 110 -202 246c20 145 136 246 274 246c132 0 210 -90 188 -245l-3 -25h-378c-6 -81 46 -150 131 -150c67 0 116 24 159 71zM170 276h294c8 79 -37 132 -123 132s-150 -53 -171 -132zM345 724l84 -144h-71l-123 144
h110z" />
    <glyph glyph-name="iacute" unicode="&#xed;" horiz-adv-x="240" 
d="M81 0l66 468h78l-66 -468h-78zM133 580l124 144h110l-163 -144h-71z" />
    <glyph glyph-name="icircumflex" unicode="&#xee;" horiz-adv-x="240" 
d="M81 0l66 468h78l-66 -468h-78zM45 580l131 144h91l92 -144h-81l-65 102l-92 -102h-76z" />
    <glyph glyph-name="idieresis" unicode="&#xef;" horiz-adv-x="240" 
d="M81 0l66 468h78l-66 -468h-78zM119 700c30 0 51 -25 47 -54c-4 -30 -32 -54 -62 -54s-50 24 -46 54c4 29 31 54 61 54zM317 700c30 0 51 -25 47 -54c-4 -30 -32 -54 -62 -54s-50 24 -46 54c4 29 31 54 61 54z" />
    <glyph glyph-name="igrave" unicode="&#xec;" horiz-adv-x="240" 
d="M81 0l66 468h78l-66 -468h-78zM187 724l84 -144h-71l-123 144h110z" />
    <glyph glyph-name="ntilde" unicode="&#xf1;" 
d="M74 0l50 357c6 43 7 80 12 111h74c-4 -25 -5 -51 -9 -77h2c27 46 91 89 168 89c123 0 168 -78 152 -191l-41 -289h-78l39 281c11 78 -16 127 -89 127c-101 0 -155 -73 -170 -180l-32 -228h-78zM242 592h-48c16 52 56 104 115 104c30 0 55 -12 81 -23c18 -8 30 -17 51 -17
c27 0 44 20 54 44h48c-15 -51 -48 -104 -107 -104c-28 0 -55 11 -78 21c-19 8 -41 19 -64 19c-25 0 -43 -22 -52 -44z" />
    <glyph glyph-name="oacute" unicode="&#xf3;" horiz-adv-x="594" 
d="M80 234c20 146 140 246 284 246s236 -100 216 -246c-21 -146 -141 -246 -285 -246s-236 100 -215 246zM164 234c-14 -98 40 -174 141 -174s177 76 191 174s-41 174 -142 174s-176 -76 -190 -174zM310 580l124 144h110l-163 -144h-71z" />
    <glyph glyph-name="ocircumflex" unicode="&#xf4;" horiz-adv-x="594" 
d="M80 234c20 146 140 246 284 246s236 -100 216 -246c-21 -146 -141 -246 -285 -246s-236 100 -215 246zM164 234c-14 -98 40 -174 141 -174s177 76 191 174s-41 174 -142 174s-176 -76 -190 -174zM222 580l131 144h91l92 -144h-81l-65 102l-92 -102h-76z" />
    <glyph glyph-name="odieresis" unicode="&#xf6;" horiz-adv-x="594" 
d="M80 234c20 146 140 246 284 246s236 -100 216 -246c-21 -146 -141 -246 -285 -246s-236 100 -215 246zM164 234c-14 -98 40 -174 141 -174s177 76 191 174s-41 174 -142 174s-176 -76 -190 -174zM296 700c30 0 51 -25 47 -54c-4 -30 -32 -54 -62 -54s-50 24 -46 54
c4 29 31 54 61 54zM494 700c30 0 51 -25 47 -54c-4 -30 -32 -54 -62 -54s-50 24 -46 54c4 29 31 54 61 54z" />
    <glyph glyph-name="ograve" unicode="&#xf2;" horiz-adv-x="594" 
d="M80 234c20 146 140 246 284 246s236 -100 216 -246c-21 -146 -141 -246 -285 -246s-236 100 -215 246zM164 234c-14 -98 40 -174 141 -174s177 76 191 174s-41 174 -142 174s-176 -76 -190 -174zM364 724l84 -144h-71l-123 144h110z" />
    <glyph glyph-name="otilde" unicode="&#xf5;" horiz-adv-x="594" 
d="M80 234c20 146 140 246 284 246s236 -100 216 -246c-21 -146 -141 -246 -285 -246s-236 100 -215 246zM164 234c-14 -98 40 -174 141 -174s177 76 191 174s-41 174 -142 174s-176 -76 -190 -174zM261 592h-48c16 52 56 104 115 104c30 0 55 -12 81 -23
c18 -8 30 -17 51 -17c27 0 44 20 54 44h48c-15 -51 -48 -104 -107 -104c-28 0 -55 11 -78 21c-19 8 -41 19 -64 19c-25 0 -43 -22 -52 -44z" />
    <glyph glyph-name="scaron" unicode="&#x161;" horiz-adv-x="426" 
d="M33 75l68 48c26 -38 56 -63 111 -63c49 0 106 21 114 72c7 50 -42 63 -90 74c-86 20 -160 39 -146 136c13 91 107 138 194 138c66 0 124 -25 148 -85l-72 -43c-15 33 -45 56 -91 56c-43 0 -95 -21 -101 -65c-5 -39 48 -56 109 -68c80 -16 146 -46 133 -140
c-15 -106 -115 -147 -208 -147c-79 0 -133 21 -169 87zM471 724l-130 -144h-91l-91 144h81l63 -102l92 102h76z" />
    <glyph glyph-name="uacute" unicode="&#xfa;" 
d="M548 468l-50 -357c-6 -43 -8 -80 -12 -111h-74c4 25 5 51 9 77h-2c-28 -46 -92 -89 -169 -89c-123 0 -167 78 -151 191l41 289h78l-40 -281c-11 -78 16 -127 89 -127c101 0 156 73 171 180l32 228h78zM291 580l124 144h110l-163 -144h-71z" />
    <glyph glyph-name="ucircumflex" unicode="&#xfb;" 
d="M548 468l-50 -357c-6 -43 -8 -80 -12 -111h-74c4 25 5 51 9 77h-2c-28 -46 -92 -89 -169 -89c-123 0 -167 78 -151 191l41 289h78l-40 -281c-11 -78 16 -127 89 -127c101 0 156 73 171 180l32 228h78zM203 580l131 144h91l92 -144h-81l-65 102l-92 -102h-76z" />
    <glyph glyph-name="udieresis" unicode="&#xfc;" 
d="M548 468l-50 -357c-6 -43 -8 -80 -12 -111h-74c4 25 5 51 9 77h-2c-28 -46 -92 -89 -169 -89c-123 0 -167 78 -151 191l41 289h78l-40 -281c-11 -78 16 -127 89 -127c101 0 156 73 171 180l32 228h78zM277 700c30 0 51 -25 47 -54c-4 -30 -32 -54 -62 -54s-50 24 -46 54
c4 29 31 54 61 54zM475 700c30 0 51 -25 47 -54c-4 -30 -32 -54 -62 -54s-50 24 -46 54c4 29 31 54 61 54z" />
    <glyph glyph-name="ugrave" unicode="&#xf9;" 
d="M548 468l-50 -357c-6 -43 -8 -80 -12 -111h-74c4 25 5 51 9 77h-2c-28 -46 -92 -89 -169 -89c-123 0 -167 78 -151 191l41 289h78l-40 -281c-11 -78 16 -127 89 -127c101 0 156 73 171 180l32 228h78zM345 724l84 -144h-71l-123 144h110z" />
    <glyph glyph-name="yacute" unicode="&#xfd;" horiz-adv-x="482" 
d="M538 468l-307 -575c-42 -79 -81 -133 -175 -133c-22 0 -48 2 -68 12l20 68c15 -6 31 -8 53 -8c51 0 75 31 98 77l45 88l-128 471h91l93 -367h2l191 367h85zM254 580l124 144h110l-163 -144h-71z" />
    <glyph glyph-name="ydieresis" unicode="&#xff;" horiz-adv-x="482" 
d="M538 468l-307 -575c-42 -79 -81 -133 -175 -133c-22 0 -48 2 -68 12l20 68c15 -6 31 -8 53 -8c51 0 75 31 98 77l45 88l-128 471h91l93 -367h2l191 367h85zM240 700c30 0 51 -25 47 -54c-4 -30 -32 -54 -62 -54s-50 24 -46 54c4 29 31 54 61 54zM438 700
c30 0 51 -25 47 -54c-4 -30 -32 -54 -62 -54s-50 24 -46 54c4 29 31 54 61 54z" />
    <glyph glyph-name="zcaron" unicode="&#x17e;" horiz-adv-x="444" 
d="M30 0l9 61l323 341h-263l9 66h365l-9 -60l-323 -342h282l-9 -66h-384zM480 724l-130 -144h-91l-91 144h81l63 -102l92 102h76z" />
    <glyph glyph-name="Delta" unicode="&#x2206;" horiz-adv-x="648" 
d="M31 0l7 52l346 672h87l152 -672l-7 -52h-585zM117 62h427l-91 386c-9 54 -33 141 -40 188h-4c-14 -38 -58 -118 -83 -172z" />
    <glyph glyph-name="Omega" unicode="&#x2126;" horiz-adv-x="720" 
d="M207 62v3c-62 64 -111 173 -91 314c28 199 177 337 348 337c179 0 270 -157 245 -332c-21 -147 -105 -261 -182 -319v-3h151l-9 -62h-240l6 46c84 51 173 162 196 324c19 132 -34 283 -177 283c-136 0 -241 -127 -263 -286c-22 -150 36 -272 104 -321l-6 -46h-240l9 62
h149z" />
    <glyph glyph-name="uni03BC" unicode="&#x3bc;" 
d="M548 468l-50 -357c-6 -43 -8 -80 -12 -111h-74c4 25 5 51 9 77h-2c-28 -46 -92 -89 -169 -89c-42 0 -68 7 -96 25l-34 -241h-78l98 696h78l-40 -281c-11 -78 16 -127 89 -127c101 0 156 73 171 180l32 228h78z" />
    <glyph glyph-name="pi" unicode="&#x3c0;" horiz-adv-x="571" 
d="M609 460h-80l-44 -312c-12 -83 -10 -121 -7 -148h-73c-7 17 -9 59 3 142l45 318h-181c-25 -131 -88 -364 -138 -460h-74c53 109 114 324 137 460c-62 0 -91 -5 -113 -13l-5 51c27 15 71 27 148 27h398z" />
    <glyph glyph-name="Euro" unicode="&#x20ac;" 
d="M621 684l-31 -70c-27 23 -69 37 -123 37c-89 0 -166 -59 -211 -172h277l-23 -59h-273c-6 -24 -12 -50 -16 -77c-2 -19 -4 -37 -6 -55h242l-24 -57h-219c4 -110 48 -176 145 -176c55 0 101 27 134 62l40 -45c-40 -47 -113 -84 -190 -84c-135 0 -210 84 -215 243h-73l26 57
h48c2 19 4 38 7 58c3 26 8 51 14 74h-66l27 59h58c59 157 177 241 309 241c56 0 116 -17 143 -36z" />
    <glyph glyph-name="afii61289" unicode="&#x2113;" horiz-adv-x="485" 
d="M447 151l32 -32c-56 -84 -126 -126 -204 -126c-115 0 -150 87 -140 187l2 13c-20 -14 -42 -32 -64 -47l-17 44c32 24 62 45 89 69l39 277c26 183 113 242 188 242c85 0 114 -73 101 -164c-18 -127 -117 -248 -258 -370l-4 -34c-15 -112 29 -157 87 -157
c62 0 118 52 149 98zM257 541l-31 -222c99 95 181 195 195 294c9 65 -4 108 -57 108c-37 0 -88 -44 -107 -180z" />
    <glyph glyph-name="estimated" unicode="&#x212e;" horiz-adv-x="984" 
d="M949 344h-659c-3 0 -5 -1 -5 -5v-199c0 -8 3 -16 9 -23c64 -66 151 -108 249 -108c105 0 198 48 262 121h58c-72 -85 -190 -141 -321 -141c-224 0 -406 163 -406 365s182 366 406 366c225 0 407 -164 407 -366v-10zM799 370v200c0 9 -3 17 -9 24
c-64 63 -151 104 -247 104c-97 0 -184 -42 -248 -107c-7 -7 -10 -16 -10 -25v-196c0 -2 2 -7 5 -7h505c3 0 4 5 4 7z" />
    <glyph glyph-name="partialdiff" unicode="&#x2202;" horiz-adv-x="547" 
d="M198 680l-19 55c37 27 93 57 175 57c130 0 236 -122 200 -382c-34 -238 -148 -418 -320 -418c-130 0 -176 118 -159 233c22 158 136 258 249 258c92 0 139 -65 150 -96h1c4 12 7 32 9 44c25 178 -45 298 -147 298c-62 0 -108 -26 -139 -49zM249 55h1
c96 0 174 124 206 257c-8 44 -52 110 -130 110c-82 0 -161 -89 -176 -196c-14 -99 24 -171 99 -171z" />
    <glyph glyph-name="product" unicode="&#x220f;" horiz-adv-x="798" 
d="M772 636h-109v-733h-75v733h-279v-733h-74v733h-110v69h647v-69z" />
    <glyph glyph-name="summation" unicode="&#x2211;" horiz-adv-x="652" 
d="M631 -97h-509v50l269 350l-257 349v53h481v-66h-376v-3l239 -322l-259 -336v-3h412v-72z" />
    <glyph glyph-name="uni2219" unicode="&#x2219;" horiz-adv-x="278" 
d="M191 369c33 0 56 -27 51 -60c-4 -33 -37 -60 -68 -60s-56 27 -52 60c5 33 36 60 69 60z" />
    <glyph glyph-name="radical" unicode="&#x221a;" horiz-adv-x="673" 
d="M674 838l-222 -989h-67l-160 468l-74 -28l-16 47l138 53l127 -375c6 -24 13 -53 17 -73h2c3 19 8 48 13 73l186 824h56z" />
    <glyph glyph-name="infinity" unicode="&#x221e;" horiz-adv-x="842" 
d="M791 293v-1c0 -97 -73 -159 -153 -159c-63 0 -114 39 -184 119c-53 -61 -108 -119 -190 -119c-81 0 -150 67 -150 156c0 92 67 159 157 159c76 0 133 -57 187 -120c51 58 103 120 187 120c87 0 146 -63 146 -155zM271 180h1c64 0 114 63 155 107c-44 55 -90 115 -162 115
c-64 0 -101 -53 -100 -114c0 -60 42 -108 106 -108zM640 402h-1c-68 0 -121 -74 -156 -110c66 -74 105 -112 159 -112c63 0 99 56 99 109c0 71 -43 113 -101 113z" />
    <glyph glyph-name="integral" unicode="&#x222b;" horiz-adv-x="460" 
d="M444 848l-13 -53c-8 6 -23 10 -37 10c-16 0 -37 -6 -50 -24c-26 -30 -34 -84 -34 -180c0 -158 13 -343 13 -507c0 -109 -19 -169 -42 -204c-22 -36 -61 -53 -100 -53c-26 0 -54 10 -66 17l13 55c9 -4 26 -12 46 -12c16 0 35 8 46 23c20 26 34 71 34 174
c0 166 -13 354 -13 514c0 111 14 173 53 214c25 27 61 40 95 40c21 0 44 -8 55 -14z" />
    <glyph glyph-name="approxequal" unicode="&#x2248;" horiz-adv-x="625" 
d="M547 434l31 -27c-27 -53 -67 -95 -129 -95c-41 0 -69 15 -117 42c-31 18 -60 34 -94 34c-46 0 -74 -35 -99 -75l-32 27c30 59 80 96 138 96c49 0 85 -27 112 -41c36 -20 59 -35 95 -35c41 0 67 26 95 74zM547 263l31 -27c-27 -53 -67 -95 -129 -95c-41 0 -69 15 -117 42
c-31 18 -60 34 -93 34c-48 0 -75 -36 -100 -75l-32 27c30 59 80 96 138 96c49 0 85 -26 112 -41c33 -18 58 -35 95 -35c41 0 67 26 95 74z" />
    <glyph glyph-name="notequal" unicode="&#x2260;" horiz-adv-x="637" 
d="M474 508l-45 -99h157v-49h-176l-68 -147h244v-49h-264l-54 -118l-39 18l46 100h-150v49h171l66 147h-237v49h257l53 116z" />
    <glyph glyph-name="lessequal" unicode="&#x2264;" horiz-adv-x="648" 
d="M594 98l-452 226v52l452 226v-59l-400 -191v-2l400 -193v-59zM597 6h-461v51h461v-51z" />
    <glyph glyph-name="greaterequal" unicode="&#x2265;" horiz-adv-x="648" 
d="M143 602l452 -226v-52l-452 -226v59l399 192v2l-399 192v59zM596 6h-459v51h459v-51z" />
    <glyph glyph-name="lozenge" unicode="&#x25ca;" horiz-adv-x="674" 
d="M620 352l-203 -398h-61l-200 398l202 398h62zM550 350l-142 283c-8 16 -15 39 -19 53h-3c-4 -16 -11 -35 -19 -53l-142 -279l144 -285c8 -20 15 -39 17 -51h4c3 13 11 38 18 51z" />
    <glyph glyph-name="uni00A0" unicode="&#xa0;" horiz-adv-x="278" 
 />
    <glyph glyph-name="uni00AD" unicode="&#xad;" horiz-adv-x="333" 
d="M73 204l10 72h245l-10 -72h-245z" />
    <glyph glyph-name="uni02C9" unicode="&#x2c9;" horiz-adv-x="240" 
d="M351 660l-9 -60h-276l9 60h276z" />
    <glyph glyph-name="uni03A9" unicode="&#x3a9;" horiz-adv-x="720" 
d="M207 62v3c-62 64 -111 173 -91 314c28 199 177 337 348 337c179 0 270 -157 245 -332c-21 -147 -105 -261 -182 -319v-3h151l-9 -62h-240l6 46c84 51 173 162 196 324c19 132 -34 283 -177 283c-136 0 -241 -127 -263 -286c-22 -150 36 -272 104 -321l-6 -46h-240l9 62
h149z" />
    <glyph glyph-name="uni2215" unicode="&#x2215;" horiz-adv-x="167" 
d="M-166 0l548 740l51 -32l-548 -740z" />
    </font>
</defs>
</svg>
