<?xml version="1.0" standalone="no"?>
<!DOCTYPE svg PUBLIC "-//W3C//DTD SVG 1.1//EN" "http://www.w3.org/Graphics/SVG/1.1/DTD/svg11.dtd" >
<svg xmlns="http://www.w3.org/2000/svg" xmlns:xlink="http://www.w3.org/1999/xlink" version="1.1">
<metadata>
Created by FontForge 20190801 at Mon Oct 10 06:30:52 2005
 By root
HTF Gotham  Copr. 2002 The Hoefler Type Foundry, Inc. Info: www.typography.com
</metadata>
<defs>
<font id="GothamBook-Italic" horiz-adv-x="500" >
  <font-face 
    font-family="Gotham Book"
    font-weight="400"
    font-style="italic"
    font-stretch="normal"
    units-per-em="1000"
    panose-1="2 0 6 3 4 0 0 9 0 4"
    ascent="800"
    descent="-200"
    x-height="517"
    cap-height="700"
    bbox="-125 -200 1185 907"
    underline-thickness="20"
    underline-position="-133"
    slope="-12"
    unicode-range="U+0020-FB02"
  />
<missing-glyph 
 />
    <glyph glyph-name="fi" unicode="fi" horiz-adv-x="639" 
d="M538 517h77l-139 -517h-77zM167 449h-71l18 68h71l17 62q20 78 65 115.5t112 37.5q61 0 103 -22l-18 -66q-23 11 -42.5 16t-42.5 5q-37 0 -63.5 -23.5t-40.5 -74.5l-13 -50h169l-19 -68h-168l-121 -449h-77zM587 715h87l-23 -85h-88z" />
    <glyph glyph-name="fl" unicode="fl" horiz-adv-x="639" 
d="M595 730h77l-196 -730h-77zM167 449h-71l18 68h71l17 62q20 78 65 115.5t112 37.5q61 0 103 -22l-18 -66q-23 11 -42.5 16t-42.5 5q-37 0 -63.5 -23.5t-40.5 -74.5l-13 -50h169l-19 -68h-168l-121 -449h-77z" />
    <glyph glyph-name=".notdef" 
 />
    <glyph glyph-name="NUL" horiz-adv-x="0" 
 />
    <glyph glyph-name="nonmarkingreturn" horiz-adv-x="300" 
 />
    <glyph glyph-name="space" unicode=" " horiz-adv-x="300" 
 />
    <glyph glyph-name="exclam" unicode="!" horiz-adv-x="271" 
d="M48 105h92l-28 -105h-92zM193 643l16 57h90l-15 -57l-143 -445h-44z" />
    <glyph glyph-name="quotedbl" unicode="&#x22;" horiz-adv-x="442" 
d="M191 700h92l-1 -5l-139 -267h-43zM388 700h92l-1 -5l-139 -267h-43z" />
    <glyph glyph-name="numbersign" unicode="#" horiz-adv-x="682" 
d="M423 246l75 212h-190l-74 -212h189zM139 177h-110l17 69h117l74 212h-122l18 69h128l60 173h71l-61 -173h191l60 173h71l-61 -173h111l-18 -69h-116l-75 -212h123l-18 -69h-129l-61 -177h-71l62 177h-191l-61 -177h-71z" />
    <glyph glyph-name="dollar" unicode="$" horiz-adv-x="623" 
d="M292 70q39 -1 71 8t55.5 25.5t36.5 40t13 52.5q0 35 -24 61t-86 51zM388 629q-39 4 -71.5 -4t-56 -24t-37 -39t-13.5 -50q0 -38 26.5 -62t89.5 -48zM212 6q-68 11 -122.5 42t-91.5 76l58 49q33 -38 78 -63.5t102 -34.5l68 252q-44 17 -77 34t-55 38t-32.5 46.5
t-10.5 58.5q0 42 18.5 78t51.5 62t77.5 41t96.5 15q9 0 17.5 -0.5t16.5 -0.5l17 59h63l-18 -68q53 -11 94 -34.5t73 -55.5l-55 -53q-27 27 -60.5 46t-75.5 28l-66 -238q86 -32 128 -72.5t42 -106.5q0 -45 -19.5 -82.5t-54 -64.5t-82.5 -42t-106 -15h-14l-27 -98h-64z" />
    <glyph glyph-name="percent" unicode="%" horiz-adv-x="837" 
d="M608 48q27 0 49.5 14t39.5 36.5t26.5 50t9.5 55.5q0 44 -22 70t-62 26q-27 0 -49.5 -14t-39.5 -36.5t-26.5 -50.5t-9.5 -56q0 -43 22 -69t62 -26zM237 401q27 0 49.5 14t39.5 36.5t26.5 50t9.5 55.5q0 44 -22 70t-62 26q-27 0 -49.5 -14t-39.5 -36.5t-26.5 -50
t-9.5 -55.5q0 -44 21.5 -70t62.5 -26zM603 -7q-32 0 -57.5 11t-44.5 30.5t-29 46.5t-10 58q0 41 14.5 80t40 69t61 48.5t76.5 18.5q31 0 57 -11.5t45 -31t29 -46t10 -57.5q0 -41 -14.5 -80t-40 -69t-61 -48.5t-76.5 -18.5zM743 700h79l-679 -700h-79zM232 346
q-32 0 -57.5 11.5t-44.5 31t-29 46t-10 57.5q0 41 14.5 80t40 69t60.5 48.5t76 18.5q32 0 58 -11.5t45 -31t29 -46t10 -57.5q0 -41 -14.5 -80t-40 -69t-61 -48.5t-76.5 -18.5z" />
    <glyph glyph-name="ampersand" unicode="&#x26;" horiz-adv-x="692" 
d="M244 58q54 0 101.5 22t95.5 66l-145 204q-99 -26 -144 -73t-45 -102q0 -54 36.5 -85.5t100.5 -31.5zM332 418q52 14 86 30.5t54 34t28.5 36.5t8.5 38q0 39 -27 64.5t-74 25.5q-24 0 -45.5 -9t-37.5 -25t-25 -37t-9 -45q0 -27 9 -53t32 -60zM479 95q-56 -52 -113 -78.5
t-131 -26.5q-44 0 -81.5 12t-65 35t-43.5 56.5t-16 75.5q0 78 57 139t175 93q-20 33 -32 65.5t-12 64.5q0 38 15 71t41 57.5t61.5 38.5t76.5 14q39 0 70.5 -11t54 -31t35 -48t12.5 -61q0 -27 -10.5 -54t-35 -52t-66 -47t-104.5 -40l125 -175q56 63 108 152l53 -34
q-30 -50 -60 -91.5t-62 -76.5l85 -119l-59 -38z" />
    <glyph glyph-name="quotesingle" unicode="'" horiz-adv-x="245" 
d="M191 700h92l-1 -5l-139 -267h-43z" />
    <glyph glyph-name="parenleft" unicode="(" horiz-adv-x="434" 
d="M264 -141q-37 32 -69 70t-56 82.5t-37.5 95.5t-13.5 109q0 75 24 147.5t73.5 137.5t123.5 120t175 96l27 -57q-92 -40 -157 -91t-106.5 -108.5t-61 -119.5t-19.5 -123q0 -51 11.5 -95t31 -81.5t45.5 -71t55 -63.5z" />
    <glyph glyph-name="parenright" unicode=")" horiz-adv-x="434" 
d="M-61 -81q91 40 156.5 91t106.5 108.5t60.5 119t19.5 123.5q0 51 -11 94.5t-30.5 81.5t-45.5 71t-56 64l47 47q37 -32 69 -70t56 -82t37.5 -95t13.5 -109q0 -75 -24 -148t-73.5 -138t-124 -120.5t-174.5 -95.5z" />
    <glyph glyph-name="asterisk" unicode="*" horiz-adv-x="430" 
d="M221 408l43 119l-119 -43l-15 51l127 22l-99 82l39 38l81 -97l22 123l51 -13l-43 -118l119 43l15 -52l-127 -21l99 -82l-39 -38l-81 97l-22 -124z" />
    <glyph glyph-name="plus" unicode="+" horiz-adv-x="642" 
d="M299 316h-207l19 72h207l55 206h75l-55 -206h207l-19 -72h-207l-56 -206h-74z" />
    <glyph glyph-name="comma" unicode="," horiz-adv-x="255" 
d="M-45 -87q44 11 66 33t28 54h-37l29 105h91l-24 -90q-18 -65 -51.5 -95t-93.5 -41z" />
    <glyph glyph-name="hyphen" unicode="-" horiz-adv-x="410" 
d="M87 341h279l-21 -81h-279z" />
    <glyph glyph-name="hyphen" unicode="&#xad;" horiz-adv-x="410" 
d="M87 341h279l-21 -81h-279z" />
    <glyph glyph-name="period" unicode="." horiz-adv-x="255" 
d="M41 105h91l-28 -105h-92z" />
    <glyph glyph-name="slash" unicode="/" horiz-adv-x="508" 
d="M582 798h78l-707 -926h-78z" />
    <glyph glyph-name="zero" unicode="0" horiz-adv-x="715" 
d="M327 60q58 0 108.5 34t88 88t59 122.5t21.5 137.5q0 43 -11 79t-32.5 62.5t-53 41.5t-72.5 15q-57 0 -107.5 -34t-88 -88t-59 -122.5t-21.5 -137.5q0 -43 11 -79t32 -62.5t52.5 -41.5t72.5 -15zM322 -12q-59 0 -104.5 20t-77 56t-47.5 85.5t-16 108.5q0 83 26.5 164
t74.5 145.5t115 104.5t148 40q58 0 104 -20t77 -56t47.5 -85.5t16.5 -108.5q0 -83 -26.5 -164t-74.5 -145.5t-115 -104.5t-148 -40z" />
    <glyph glyph-name="one" unicode="1" horiz-adv-x="361" 
d="M259 617l-142 -41l-2 69l188 60h59l-189 -705h-79z" />
    <glyph glyph-name="two" unicode="2" horiz-adv-x="595" 
d="M-6 62l401 304q58 44 87.5 82t29.5 83q0 47 -35 77t-98 30q-59 0 -106 -28t-86 -68l-52 50q48 51 108 84.5t139 33.5q47 0 86 -12.5t67 -35.5t43.5 -55t15.5 -71q0 -63 -38 -113.5t-112 -105.5l-323 -245h374l-19 -72h-498z" />
    <glyph glyph-name="three" unicode="3" horiz-adv-x="605" 
d="M248 -12q-92 0 -153 37t-92 99l62 40q28 -49 72.5 -76.5t114.5 -27.5q41 0 76.5 11.5t61.5 32.5t40.5 49.5t14.5 61.5q0 60 -49 89.5t-132 29.5h-32l-10 45l283 250h-345l20 71h456l-16 -58l-285 -249q39 -3 74 -15.5t61.5 -34t41.5 -52t15 -70.5q0 -51 -22 -93.5
t-60.5 -73.5t-89 -48.5t-107.5 -17.5z" />
    <glyph glyph-name="four" unicode="4" horiz-adv-x="649" 
d="M417 232l96 357l-384 -357h288zM399 166h-364l-10 59l519 480h76l-127 -473h109l-18 -66h-109l-44 -166h-77z" />
    <glyph glyph-name="five" unicode="5" horiz-adv-x="603" 
d="M251 -12q-86 0 -146.5 36.5t-95.5 88.5l61 45q34 -47 79 -73t108 -26q46 0 83.5 14t64 38t41 55t14.5 65q0 63 -43.5 98.5t-113.5 35.5q-32 0 -69.5 -9t-73.5 -29l-45 36l110 337h391l-21 -73h-319l-74 -220q22 11 57 19t63 8q50 0 90.5 -14t69.5 -39.5t45 -62t16 -81.5
q0 -50 -21 -95t-59 -79.5t-92 -54.5t-120 -20z" />
    <glyph glyph-name="six" unicode="6" horiz-adv-x="641" 
d="M318 57q42 0 76.5 14.5t59.5 38.5t39 56t14 67q0 26 -9.5 51t-29 44.5t-48.5 31.5t-68 12q-44 0 -79.5 -14.5t-60.5 -38t-39 -53.5t-14 -62q0 -64 41 -103q23 -23 53 -33.5t65 -10.5zM316 -12q-53 0 -97 17t-73 47q-33 33 -51 80t-18 114q0 56 10 108.5t28.5 99t44 86.5
t56.5 71q49 49 106.5 75t125.5 26q69 0 120 -24.5t87 -65.5l-52 -54q-29 32 -68.5 52t-92.5 20q-95 0 -169 -74q-41 -41 -71 -102t-37 -126q15 20 35.5 38.5t46 32.5t55.5 22.5t65 8.5q51 0 92 -15.5t69.5 -43t44 -64t15.5 -78.5q0 -50 -20.5 -95.5t-57 -80t-86.5 -55
t-108 -20.5z" />
    <glyph glyph-name="seven" unicode="7" horiz-adv-x="586" 
d="M522 628h-381l20 72h475l-17 -59l-466 -641h-92z" />
    <glyph glyph-name="eight" unicode="8" horiz-adv-x="647" 
d="M301 58q43 0 79 10t61.5 28.5t40 44t14.5 56.5q0 25 -12.5 48.5t-36.5 41t-57.5 28t-75.5 10.5q-45 0 -81.5 -11.5t-62 -30.5t-39 -44.5t-13.5 -53.5t12.5 -51t36.5 -40t58 -26.5t76 -9.5zM376 390q43 0 75.5 11t55 29.5t34 42t11.5 48.5q0 53 -43.5 87t-116.5 34
q-39 0 -70.5 -10t-54.5 -27.5t-35.5 -41.5t-12.5 -52q0 -26 11.5 -48t32 -38t49.5 -25.5t64 -9.5zM296 -10q-57 0 -104 14.5t-81.5 39.5t-53.5 59.5t-19 73.5q0 42 16 75t43.5 57.5t64.5 40t80 23.5q-43 17 -72 55t-29 90q0 39 18.5 74t52 61.5t80 41.5t102.5 15
q52 0 95 -13.5t74.5 -37.5t49 -57t17.5 -73q0 -36 -13.5 -66t-36.5 -53t-55 -39t-68 -23q23 -8 44.5 -22.5t38 -34t26.5 -44.5t10 -54q0 -43 -20.5 -80t-58 -64.5t-89 -43t-112.5 -15.5z" />
    <glyph glyph-name="nine" unicode="9" horiz-adv-x="641" 
d="M338 320q42 0 77.5 15t60.5 39.5t39 56t14 65.5q0 62 -40 102q-45 45 -118 45q-42 0 -77 -15t-60 -39.5t-39 -57.5t-14 -69q0 -27 9 -53t28.5 -45.5t49.5 -31.5t70 -12zM243 -13q-66 0 -120.5 26t-94.5 71l52 54q34 -37 74 -58t93 -21q94 0 169 75q42 41 71 100.5
t36 122.5q-14 -19 -33.5 -38t-45 -34t-56.5 -24.5t-68 -9.5q-51 0 -92 16t-69.5 43.5t-44 65t-15.5 80.5q0 52 21 98t58 81t86.5 55.5t108.5 20.5q51 0 95.5 -17t74.5 -46q33 -34 51 -81t18 -118q0 -111 -38.5 -204.5t-101.5 -156.5q-50 -49 -106.5 -75t-122.5 -26z" />
    <glyph glyph-name="colon" unicode=":" horiz-adv-x="262" 
d="M44 105h92l-28 -105h-92zM155 517h92l-29 -105h-92z" />
    <glyph glyph-name="semicolon" unicode=";" horiz-adv-x="262" 
d="M-41 -87q44 11 65.5 33t27.5 54h-36l28 105h92l-24 -90q-18 -65 -51.5 -95t-93.5 -41zM155 517h92l-29 -105h-92z" />
    <glyph glyph-name="semicolon" unicode="&#x37e;" horiz-adv-x="262" 
d="M-41 -87q44 11 65.5 33t27.5 54h-36l28 105h92l-24 -90q-18 -65 -51.5 -95t-93.5 -41zM155 517h92l-29 -105h-92z" />
    <glyph glyph-name="less" unicode="&#x3c;" horiz-adv-x="640" 
d="M76 319l18 66l533 233l-22 -83l-436 -188l335 -189l-20 -72z" />
    <glyph glyph-name="equal" unicode="=" horiz-adv-x="640" 
d="M94 272h459l-20 -74h-459zM157 506h459l-19 -74h-460z" />
    <glyph glyph-name="greater" unicode="&#x3e;" horiz-adv-x="640" 
d="M68 169l435 188l-334 189l20 72l407 -233l-18 -66l-532 -233z" />
    <glyph glyph-name="question" unicode="?" horiz-adv-x="537" 
d="M145 105h92l-28 -105h-92zM217 360l6 5q53 4 97 16.5t75 32.5t48 48.5t17 63.5q0 54 -38 82.5t-95 28.5q-55 0 -102 -24t-80 -56l-45 52q43 43 102 71.5t133 28.5q48 0 86.5 -13.5t65.5 -37.5t41 -56.5t14 -69.5q0 -48 -20 -86t-55 -66t-83 -46t-104 -26l-40 -110h-51z
" />
    <glyph glyph-name="at" unicode="@" horiz-adv-x="980" 
d="M449 131q34 0 68 16t60.5 43t43 62t16.5 73q0 51 -31.5 84t-85.5 33q-35 0 -66.5 -16t-55.5 -43t-38 -63.5t-14 -77.5q0 -53 29 -82t74 -29zM482 -159q-95 0 -172 28t-132 79.5t-85 123.5t-30 160q0 96 38.5 183.5t105 153.5t155.5 105t191 39q93 0 166.5 -27.5
t124.5 -75.5t77.5 -112t26.5 -136q0 -73 -20 -127.5t-51 -91t-69.5 -54.5t-74.5 -18q-53 0 -84.5 25t-40.5 69q-38 -46 -82 -71t-97 -25q-33 0 -62 11.5t-50.5 33t-34 52.5t-12.5 70q0 56 21.5 105t56 85t78.5 57t90 21q60 0 95.5 -29.5t51.5 -68.5l27 88l65 -17l-76 -244
q-17 -53 0.5 -87.5t65.5 -34.5q25 0 54.5 15.5t54 46.5t41 78t16.5 111q0 66 -24.5 123.5t-70.5 100.5t-112.5 68t-150.5 25q-94 0 -176.5 -36.5t-144 -98t-97 -142.5t-35.5 -170q0 -80 27.5 -145.5t77.5 -112.5t120.5 -73t156.5 -26q57 0 106 11t100 34l15 -31
q-54 -25 -107 -36.5t-114 -11.5z" />
    <glyph glyph-name="A" unicode="A" horiz-adv-x="761" 
d="M548 256l-63 359l-256 -359h319zM468 705h76l130 -705h-81l-32 185h-382l-132 -185h-87z" />
    <glyph glyph-name="B" unicode="B" horiz-adv-x="717" 
d="M361 71q95 0 150 37t55 103q0 27 -12 47t-33.5 33.5t-51 20t-64.5 6.5h-212l-66 -247h234zM411 388q94 0 149.5 38t55.5 101q0 50 -37 76t-106 26h-197l-64 -241h199zM218 700h262q103 0 160 -44t57 -119q0 -38 -13.5 -68.5t-37 -53.5t-55.5 -39t-69 -23q52 -16 88 -51
t36 -94q0 -45 -20 -83.5t-58 -66t-92.5 -43t-123.5 -15.5h-322z" />
    <glyph glyph-name="C" unicode="C" horiz-adv-x="735" 
d="M383 -13q-62 0 -116 20t-94.5 57.5t-64 91t-23.5 121.5q0 85 33 163.5t90 139t133.5 96.5t163.5 36q97 0 163 -42.5t101 -107.5l-68 -42q-32 55 -79 87t-124 32q-68 0 -128 -30t-105 -80t-71 -115t-26 -134q0 -51 16.5 -91.5t45.5 -69t69 -43.5t88 -15q71 0 121.5 25.5
t95.5 69.5l53 -52q-24 -24 -52.5 -45.5t-62 -37.5t-73 -25t-86.5 -9z" />
    <glyph glyph-name="D" unicode="D" horiz-adv-x="773" 
d="M277 73q88 0 161.5 28t127.5 82q42 42 65 97.5t23 120.5q0 98 -59 155q-71 71 -213 71h-104l-149 -554h148zM218 700h169q88 0 157.5 -24t115.5 -69q76 -76 76 -201q0 -81 -28 -150t-82 -123q-63 -63 -155 -98t-204 -35h-237z" />
    <glyph glyph-name="E" unicode="E" horiz-adv-x="653" 
d="M218 700h501l-20 -72h-422l-64 -239h377l-20 -72h-376l-66 -245h427l-19 -72h-506z" />
    <glyph glyph-name="F" unicode="F" horiz-adv-x="658" 
d="M218 700h503l-19 -73h-425l-67 -250h380l-20 -72h-379l-82 -305h-79z" />
    <glyph glyph-name="G" unicode="G" horiz-adv-x="784" 
d="M396 -13q-64 0 -120.5 20t-98.5 58.5t-66.5 93.5t-24.5 126q0 81 32.5 158t90 136.5t136.5 96t171 36.5q54 0 96 -10.5t73.5 -28.5t54.5 -41t40 -48l-60 -47q-15 21 -34 40t-44 33t-57.5 22t-75.5 8q-73 0 -135 -30t-107.5 -79.5t-71.5 -113t-26 -129.5q0 -54 17 -96.5
t48 -71.5t73.5 -44.5t93.5 -15.5q57 0 102 14t79 35l55 194h-211l19 71h289l-89 -314q-56 -35 -116 -54t-133 -19z" />
    <glyph glyph-name="H" unicode="H" horiz-adv-x="756" 
d="M218 700h79l-83 -311h399l83 311h80l-188 -700h-80l85 315h-399l-85 -315h-79z" />
    <glyph glyph-name="I" unicode="I" horiz-adv-x="291" 
d="M225 700h79l-188 -700h-79z" />
    <glyph glyph-name="J" unicode="J" horiz-adv-x="548" 
d="M194 -10q-41 0 -74.5 11t-59.5 31t-44.5 47.5t-29.5 59.5l63 37q22 -57 56.5 -85t89.5 -28q68 0 118 48q24 25 41 60t32 91l118 438h80l-122 -453q-17 -66 -39 -110.5t-56 -78.5t-79 -51t-94 -17z" />
    <glyph glyph-name="K" unicode="K" horiz-adv-x="718" 
d="M218 700h79l-111 -416l502 416h112l-376 -308l199 -392h-89l-174 346l-203 -167l-48 -179h-79z" />
    <glyph glyph-name="L" unicode="L" horiz-adv-x="607" 
d="M218 700h79l-168 -627h394l-20 -73h-473z" />
    <glyph glyph-name="M" unicode="M" horiz-adv-x="869" 
d="M218 700h74l151 -382l357 382h88l-188 -700h-80l152 567l-355 -375h-4l-153 374l-152 -566h-78z" />
    <glyph glyph-name="N" unicode="N" horiz-adv-x="786" 
d="M218 700h73l285 -568l153 568h77l-188 -700h-63l-292 581l-156 -581h-77z" />
    <glyph glyph-name="O" unicode="O" horiz-adv-x="842" 
d="M400 60q69 0 127.5 29.5t101 78t67 111t24.5 127.5q0 49 -16 92t-46 74t-72.5 49t-94.5 18q-69 0 -127.5 -29.5t-101 -78t-67 -111t-24.5 -127.5q0 -50 16 -92.5t46 -73.5t72 -49t95 -18zM395 -13q-68 0 -124.5 23.5t-97 64.5t-63 96.5t-22.5 119.5q0 81 31.5 157
t86 134.5t129 94t161.5 35.5q68 0 124.5 -23.5t97 -64.5t63 -96t22.5 -119q0 -81 -31.5 -157.5t-86 -135t-129 -94t-161.5 -35.5z" />
    <glyph glyph-name="P" unicode="P" horiz-adv-x="667" 
d="M346 319q125 0 192 47t67 134q0 51 -32 83q-44 44 -139 44h-157l-82 -308h151zM218 700h219q134 0 200 -65q24 -25 37 -57t13 -73q0 -61 -25 -108.5t-70.5 -80.5t-109 -50t-140.5 -17h-166l-67 -249h-79z" />
    <glyph glyph-name="Q" unicode="Q" horiz-adv-x="842" 
d="M400 60q45 0 86 13.5t76 37.5l-109 128l62 47l102 -129q48 49 75.5 114t27.5 135q0 49 -16 92t-46 74t-72.5 49t-94.5 18q-69 0 -127.5 -29.5t-101 -78t-67 -111t-24.5 -127.5q0 -50 16 -92.5t46 -73.5t72 -49t95 -18zM607 53q-46 -31 -99.5 -48.5t-112.5 -17.5
q-68 0 -124.5 23.5t-97 64.5t-63 96.5t-22.5 119.5q0 81 31.5 157t86 134.5t129 94t161.5 35.5q68 0 124.5 -23.5t97 -64.5t63 -96t22.5 -119q0 -89 -37 -171t-102 -142l70 -79l-62 -46z" />
    <glyph glyph-name="R" unicode="R" horiz-adv-x="717" 
d="M391 343q69 0 119.5 17.5t79.5 46.5q20 21 31 46t11 56q0 47 -29 76q-20 20 -53.5 31t-83.5 11h-188l-77 -284h190zM218 700h252q131 0 197 -64q46 -48 46 -121q0 -46 -16.5 -84t-45.5 -68q-33 -33 -83.5 -54t-110.5 -29l144 -280h-91l-138 272h-190l-73 -272h-79z" />
    <glyph glyph-name="S" unicode="S" horiz-adv-x="637" 
d="M298 -10q-97 0 -169 35t-117 98l60 47q45 -54 99 -81.5t132 -27.5q38 0 70.5 10t56 27t37 41t13.5 53q0 20 -7.5 36.5t-24 31.5t-44.5 29.5t-68 30.5q-48 19 -84 38t-60 40.5t-36 48t-12 60.5q0 43 19 80.5t53.5 64.5t81.5 42.5t104 15.5q82 0 145 -29.5t103 -76.5
l-58 -52q-38 42 -86.5 64.5t-110.5 22.5q-39 0 -70.5 -10t-53 -27.5t-33 -39.5t-11.5 -46q0 -21 8.5 -38t27.5 -32t48.5 -29t70.5 -30q45 -17 79 -35.5t56.5 -40.5t34 -48.5t11.5 -60.5q0 -46 -20.5 -85t-56 -67t-84 -44t-104.5 -16z" />
    <glyph glyph-name="T" unicode="T" horiz-adv-x="616" 
d="M364 627h-236l20 73h551l-20 -73h-236l-168 -627h-79z" />
    <glyph glyph-name="U" unicode="U" horiz-adv-x="758" 
d="M347 -11q-63 0 -110.5 16.5t-79.5 46.5t-48.5 71t-16.5 90q0 55 15 109l100 378h80l-106 -399q-5 -16 -7.5 -36t-2.5 -43q0 -34 11 -63.5t34 -51t57 -33.5t81 -12q44 0 83.5 16t72.5 48q27 28 50.5 70.5t38.5 100.5l109 403h79l-112 -417q-36 -133 -110 -207
q-87 -87 -218 -87z" />
    <glyph glyph-name="V" unicode="V" horiz-adv-x="717" 
d="M137 700h84l86 -602l409 602h90l-488 -705h-71z" />
    <glyph glyph-name="W" unicode="W" horiz-adv-x="1083" 
d="M145 700h82l44 -583l347 585h65l37 -585l356 583h89l-439 -705h-69l-40 565l-343 -565h-68z" />
    <glyph glyph-name="X" unicode="X" horiz-adv-x="694" 
d="M328 362l-176 338h87l146 -286l279 286h102l-346 -349l182 -351h-87l-152 299l-291 -299h-103z" />
    <glyph glyph-name="Y" unicode="Y" horiz-adv-x="663" 
d="M292 282l-173 418h88l140 -353l330 353h101l-410 -431l-72 -269h-80z" />
    <glyph glyph-name="Z" unicode="Z" horiz-adv-x="669" 
d="M-5 53l597 576h-427l20 71h542l-14 -53l-598 -576h446l-19 -71h-561z" />
    <glyph glyph-name="bracketleft" unicode="[" horiz-adv-x="439" 
d="M232 700h286l-16 -60h-214l-190 -710h213l-16 -60h-286z" />
    <glyph glyph-name="backslash" unicode="\" horiz-adv-x="508" 
d="M139 798h66l218 -926h-66z" />
    <glyph glyph-name="bracketright" unicode="]" horiz-adv-x="439" 
d="M-49 -70h214l190 710h-214l16 60h287l-223 -830h-287z" />
    <glyph glyph-name="asciicircum" unicode="^" 
d="M328 702h60l100 -209h-61l-77 154l-159 -154h-74z" />
    <glyph glyph-name="underscore" unicode="_" horiz-adv-x="600" 
d="M-97 -97h605l-18 -63h-604z" />
    <glyph glyph-name="grave" unicode="`" 
d="M279 703l81 37l56 -145h-54z" />
    <glyph glyph-name="a" unicode="a" horiz-adv-x="576" 
d="M207 50q33 0 65 11t59.5 31.5t48 48.5t29.5 62l10 36q-34 9 -76.5 16t-90.5 7q-69 0 -111.5 -33.5t-42.5 -87.5q0 -42 29 -66.5t80 -24.5zM182 -11q-33 0 -62.5 9.5t-52 27.5t-35.5 44.5t-13 61.5q0 43 17 78t48 59t73 37t92 13q52 0 99 -8.5t84 -19.5l4 13q2 11 4 23.5
t2 23.5q0 50 -34.5 77t-104.5 27q-42 0 -76.5 -7t-69.5 -20l-14 65q39 15 80 23.5t92 8.5q98 0 150.5 -43t52.5 -118q0 -16 -2.5 -34.5t-7.5 -36.5l-78 -293h-76l21 81q-35 -42 -83 -67t-110 -25z" />
    <glyph glyph-name="b" unicode="b" horiz-adv-x="659" 
d="M312 56q46 0 85.5 20t68.5 53.5t45.5 78t16.5 94.5q0 36 -10.5 65t-30 50t-46 32t-59.5 11q-43 0 -84.5 -20.5t-73.5 -54t-52 -77.5t-20 -91q0 -34 11.5 -63.5t32.5 -51t50.5 -34t65.5 -12.5zM319 -12q-40 0 -71 10.5t-55 28t-40.5 40.5t-27.5 49l-31 -116h-77l196 730
h77l-82 -302q38 42 85.5 71t110.5 29q44 0 81.5 -15.5t65 -44.5t43 -69.5t15.5 -89.5q0 -69 -24 -127.5t-64.5 -101.5t-92.5 -67.5t-109 -24.5z" />
    <glyph glyph-name="c" unicode="c" horiz-adv-x="562" 
d="M277 -12q-45 0 -86.5 15.5t-73 44.5t-50.5 71t-19 95q0 63 24.5 120t66 100t96.5 68.5t117 25.5q40 0 73 -10t58.5 -26.5t44 -38.5t30.5 -46l-62 -39q-11 19 -25 35.5t-31.5 29t-40.5 20t-52 7.5q-44 0 -84 -20t-70 -53.5t-48 -78t-18 -92.5q0 -38 12.5 -68t34 -50.5
t49.5 -31t58 -10.5q46 0 82.5 18.5t70.5 49.5l45 -50q-40 -38 -88.5 -62t-113.5 -24z" />
    <glyph glyph-name="d" unicode="d" horiz-adv-x="659" 
d="M277 56q43 0 84.5 20.5t73.5 54t52 77.5t20 92q0 34 -11.5 63t-32.5 50.5t-50.5 34t-65.5 12.5q-46 0 -85.5 -20t-68.5 -53.5t-45.5 -78.5t-16.5 -94q0 -36 10.5 -65t30 -50t46.5 -32t59 -11zM255 -12q-44 0 -81.5 16t-65 44.5t-43 69t-15.5 89.5q0 69 24 127.5
t64.5 101.5t92.5 67.5t109 24.5q40 0 71 -10.5t55 -28t40.5 -41t27.5 -48.5l88 330h77l-195 -730h-77l23 88q-37 -42 -84.5 -71t-110.5 -29z" />
    <glyph glyph-name="e" unicode="e" horiz-adv-x="589" 
d="M470 291q2 8 3 17t1 22q0 27 -7.5 51t-23.5 42t-40.5 29t-57.5 11q-38 0 -71.5 -13.5t-60 -37t-46 -54.5t-30.5 -67h333zM126 229q-1 -5 -1 -9v-9q0 -71 42 -113.5t114 -42.5q50 0 87 16t72 45l40 -51q-38 -32 -86.5 -54.5t-116.5 -22.5q-51 0 -93.5 16t-72.5 45
t-46.5 69.5t-16.5 89.5q0 59 22.5 116.5t63 102.5t95.5 73t120 28q49 0 86.5 -16t62.5 -43t38 -63t13 -76q0 -26 -5 -51.5t-14 -49.5h-404z" />
    <glyph glyph-name="f" unicode="f" horiz-adv-x="375" 
d="M167 449h-71l18 68h71l17 62q20 78 65 115.5t112 37.5q61 0 103 -22l-18 -66q-23 11 -42.5 16t-42.5 5q-37 0 -63.5 -23.5t-40.5 -74.5l-13 -50h169l-19 -68h-168l-121 -449h-77z" />
    <glyph glyph-name="g" unicode="g" horiz-adv-x="659" 
d="M287 106q44 0 84 17.5t70.5 46.5t48.5 66.5t18 77.5q0 28 -11 54.5t-31.5 47t-50 32.5t-66.5 12q-41 0 -79.5 -16t-68 -45t-47.5 -68.5t-18 -85.5q0 -35 12.5 -61t33.5 -43t48 -26t57 -9zM240 -162q-72 0 -138.5 24t-114.5 66l48 54q42 -35 93 -56.5t111 -21.5
q49 0 85.5 14.5t59.5 38.5q24 23 39 53.5t26 70.5l14 52q-39 -40 -86.5 -66.5t-111.5 -26.5q-41 0 -78.5 13t-67 38t-47 61t-17.5 83q0 64 25 118t65.5 93t93 60.5t106.5 21.5q42 0 72.5 -10.5t53 -28t38 -40t26.5 -45.5l30 113h77l-118 -443q-17 -60 -36.5 -97.5
t-47.5 -65.5q-36 -36 -85 -54.5t-115 -18.5z" />
    <glyph glyph-name="h" unicode="h" horiz-adv-x="613" 
d="M213 730h77l-80 -297q35 40 78 67.5t102 27.5q75 0 120 -43t45 -117q0 -18 -4 -39t-9 -41l-76 -288h-77l78 293q4 13 6 29t2 29q0 51 -31 79.5t-85 28.5q-30 0 -59 -12.5t-54 -34.5t-44.5 -52.5t-29.5 -67.5l-78 -292h-77z" />
    <glyph glyph-name="i" unicode="i" horiz-adv-x="264" 
d="M163 517h77l-139 -517h-77zM211 715h88l-23 -85h-88z" />
    <glyph glyph-name="j" unicode="j" horiz-adv-x="263" 
d="M-50 -163q-20 0 -35.5 2t-33.5 7l18 65q10 -3 21.5 -5t22.5 -2q26 0 45 17t29 53l146 543h77l-148 -551q-18 -66 -55 -97.5t-87 -31.5zM211 715h88l-23 -85h-88z" />
    <glyph glyph-name="k" unicode="k" horiz-adv-x="568" 
d="M213 730h77l-133 -497l348 284h105l-277 -223l142 -294h-87l-120 245l-138 -110l-36 -135h-77z" />
    <glyph glyph-name="l" unicode="l" horiz-adv-x="264" 
d="M220 730h77l-196 -730h-77z" />
    <glyph glyph-name="m" unicode="m" horiz-adv-x="950" 
d="M155 517h77l-22 -84q35 40 75 67.5t97 27.5q33 0 58 -10t43 -26t29.5 -37.5t16.5 -43.5q35 54 87 85.5t121 31.5q35 0 64 -11.5t50 -32.5t32.5 -50.5t11.5 -65.5q0 -18 -4.5 -39t-9.5 -41l-77 -288h-77l79 293q3 13 5 29t2 29q0 51 -28 79.5t-79 28.5q-29 0 -56.5 -12.5
t-51.5 -35t-42.5 -53t-28.5 -66.5l-77 -292h-77l78 293q4 13 6 29t2 29q0 51 -28.5 79.5t-79.5 28.5q-29 0 -56.5 -12.5t-51.5 -35t-42.5 -53t-28.5 -66.5l-78 -292h-77z" />
    <glyph glyph-name="n" unicode="n" horiz-adv-x="613" 
d="M155 517h77l-22 -84q35 40 78 67.5t102 27.5q75 0 120 -43t45 -117q0 -18 -4 -39t-9 -41l-76 -288h-77l78 293q4 13 6 29t2 29q0 51 -31 79.5t-85 28.5q-30 0 -59 -12.5t-54 -34.5t-44.5 -52.5t-29.5 -67.5l-78 -292h-77z" />
    <glyph glyph-name="o" unicode="o" horiz-adv-x="638" 
d="M289 57q43 0 83 19.5t71 52.5t49 76t18 89q0 79 -45 122.5t-117 43.5q-45 0 -85 -20.5t-70 -53.5t-48 -76t-18 -88q0 -79 45 -122t117 -43zM284 -12q-53 0 -96.5 17.5t-74.5 48.5t-47.5 73.5t-16.5 92.5q0 60 24.5 116t66 98.5t96.5 68t117 25.5q53 0 96.5 -17.5
t74.5 -48t48 -73t17 -92.5q0 -62 -25 -118t-67 -98.5t-97 -67.5t-116 -25z" />
    <glyph glyph-name="p" unicode="p" horiz-adv-x="659" 
d="M312 56q46 0 85.5 20t68.5 53.5t45.5 78t16.5 94.5q0 36 -10.5 65t-30 50t-46 32t-59.5 11q-43 0 -84.5 -20.5t-73.5 -54t-52 -77.5t-20 -91q0 -34 11.5 -63.5t32.5 -51t50.5 -34t65.5 -12.5zM155 517h77l-24 -89q38 42 85.5 71t110.5 29q44 0 81.5 -15.5t65 -44.5
t43 -69.5t15.5 -89.5q0 -69 -24 -127.5t-64.5 -101.5t-92.5 -67.5t-109 -24.5q-40 0 -71 10.5t-55 28t-40.5 40.5t-27.5 49l-74 -276h-77z" />
    <glyph glyph-name="q" unicode="q" horiz-adv-x="659" 
d="M277 56q43 0 84.5 20.5t73.5 54.5t52 78t20 91q0 34 -11.5 63t-32.5 50.5t-50.5 34t-65.5 12.5q-46 0 -85.5 -20t-68.5 -53.5t-45.5 -78.5t-16.5 -94q0 -36 10.5 -65t30 -50t46.5 -32t59 -11zM451 89q-38 -42 -85.5 -71.5t-110.5 -29.5q-44 0 -81.5 16t-65 44.5t-43 69
t-15.5 89.5q0 69 24 127.5t64.5 101.5t92.5 67.5t109 24.5q40 0 71 -10.5t55 -27.5t40.5 -40.5t27.5 -48.5l31 116h77l-191 -717h-77z" />
    <glyph glyph-name="r" unicode="r" horiz-adv-x="402" 
d="M155 517h77l-35 -135q24 34 50.5 61.5t57.5 46.5t65 28.5t73 7.5l-22 -83h-5q-42 0 -83.5 -15.5t-77 -45.5t-63.5 -75t-43 -103l-55 -204h-77z" />
    <glyph glyph-name="s" unicode="s" horiz-adv-x="496" 
d="M217 -11q-60 0 -119 22.5t-104 67.5l50 50q42 -41 87.5 -58.5t92.5 -17.5q22 0 42.5 6t36.5 17.5t25.5 27t9.5 35.5q0 25 -21 45.5t-77 42.5q-70 27 -108 57.5t-38 84.5q0 33 13.5 62t39 50.5t62 34t81.5 12.5q57 0 108 -21.5t83 -49.5l-45 -53q-32 26 -71.5 43t-81.5 17
q-55 0 -83.5 -25t-28.5 -57q0 -13 4.5 -23.5t16 -21t31.5 -21t51 -22.5q70 -29 105.5 -60.5t35.5 -81.5q0 -36 -15.5 -66t-42.5 -51.5t-63 -33.5t-77 -12z" />
    <glyph glyph-name="t" unicode="t" horiz-adv-x="401" 
d="M202 -9q-56 0 -91 25.5t-35 76.5q0 14 2 28t5 26l81 302h-71l18 68h72l42 156h76l-42 -156h163l-18 -68h-163l-80 -298q-2 -9 -3 -19.5t-1 -18.5q0 -27 19 -40t52 -13q34 0 75 16l-19 -70q-20 -8 -39.5 -11.5t-42.5 -3.5z" />
    <glyph glyph-name="u" unicode="u" horiz-adv-x="613" 
d="M222 -11q-75 0 -119.5 43t-44.5 117q0 18 4 39t9 41l76 288h77l-79 -293q-3 -13 -5 -29t-2 -29q0 -51 30.5 -79.5t84.5 -28.5q30 0 59.5 12.5t54.5 34.5t44 53t29 68l78 291h77l-138 -517h-77l23 84q-35 -40 -78.5 -67.5t-102.5 -27.5z" />
    <glyph glyph-name="v" unicode="v" horiz-adv-x="566" 
d="M88 517h81l58 -429l286 429h87l-361 -521h-68z" />
    <glyph glyph-name="w" unicode="w" horiz-adv-x="848" 
d="M96 517h78l27 -412l250 414h64l29 -414l249 412h80l-322 -521h-68l-30 408l-249 -408h-67z" />
    <glyph glyph-name="x" unicode="x" horiz-adv-x="564" 
d="M243 268l-130 249h85l98 -197l197 197h97l-263 -256l135 -261h-85l-103 210l-212 -210h-97z" />
    <glyph glyph-name="y" unicode="y" horiz-adv-x="574" 
d="M38 -163q-33 0 -60.5 9.5t-52.5 26.5l42 58q14 -11 37 -18.5t42 -7.5q33 0 64.5 20.5t70.5 75.5l-94 516h80l72 -431l278 431h87l-354 -534q-55 -80 -104.5 -113t-107.5 -33z" />
    <glyph glyph-name="z" unicode="z" horiz-adv-x="549" 
d="M-6 49l441 403h-321l18 65h432l-14 -49l-442 -403h338l-18 -65h-448z" />
    <glyph glyph-name="braceleft" unicode="{" horiz-adv-x="483" 
d="M311 -141q-45 9 -77 25.5t-51.5 37.5t-28.5 46.5t-9 53.5q0 23 5 46.5t18 64.5q5 17 7.5 32t2.5 27q0 31 -19 48t-72 17h-28l16 60h28q38 0 64.5 9t45 29.5t30.5 54t21 82.5q9 51 27 91t49.5 68.5t79.5 44.5t118 19l1 -55q-53 -3 -89 -16.5t-59.5 -36t-36 -54.5
t-19.5 -74q-9 -53 -22 -88t-31.5 -57.5t-43.5 -34.5t-59 -17q73 -18 73 -84q0 -30 -11 -63q-8 -23 -14.5 -51.5t-6.5 -51.5q0 -44 25 -75t90 -50z" />
    <glyph glyph-name="bar" unicode="|" horiz-adv-x="303" 
d="M139 798h64v-926h-64v926z" />
    <glyph glyph-name="braceright" unicode="}" horiz-adv-x="483" 
d="M-41 -86q53 3 89 16.5t59 36t36 54.5t20 74q9 52 22 87.5t31.5 58t43.5 34.5t59 17q-74 18 -74 84q0 14 3.5 30.5t8.5 32.5q7 23 14 51.5t7 51.5q0 44 -25 75t-90 50l24 48q45 -9 76.5 -25.5t51 -37.5t28.5 -46.5t9 -53.5q0 -23 -5 -46.5t-17 -64.5q-11 -35 -11 -59
q0 -31 19.5 -48t72.5 -17h27l-15 -60h-28q-38 0 -64.5 -9t-45 -29.5t-31 -54t-21.5 -82.5q-9 -51 -26.5 -91t-49 -68.5t-79.5 -44.5t-118 -19z" />
    <glyph glyph-name="asciitilde" unicode="~" horiz-adv-x="473" 
d="M78 260q25 52 53 79t65 27q23 0 38 -9t32 -24q17 -16 26.5 -22.5t22.5 -6.5q18 0 31.5 15t30.5 44l49 -21q-24 -52 -52 -79t-65 -27q-23 0 -38 9t-32 24q-17 16 -27 22.5t-22 6.5q-18 0 -31.5 -15.5t-30.5 -44.5z" />
    <glyph glyph-name="Adieresis" unicode="&#xc4;" horiz-adv-x="761" 
d="M416 857h90l-26 -95h-90zM593 857h89l-26 -95h-89zM548 256l-63 359l-256 -359h319zM468 705h76l130 -705h-81l-32 185h-382l-132 -185h-87z" />
    <glyph glyph-name="Aring" unicode="&#xc5;" horiz-adv-x="761" 
d="M556 256l-64 359l-256 -359h320zM520 705q29 0 49 21.5t20 50.5q0 22 -14.5 36t-41.5 14q-30 0 -50 -21.5t-20 -50.5q0 -21 14.5 -35.5t42.5 -14.5zM460 684q-20 11 -30 29.5t-10 41.5t9 43t24.5 35t36 24t43.5 9q45 0 72.5 -25t27.5 -63q0 -36 -22 -64t-54 -39l125 -675
h-82l-32 185h-381l-133 -185h-87z" />
    <glyph glyph-name="Ccedilla" unicode="&#xc7;" horiz-adv-x="735" 
d="M273 -155l-65 34l110 115q-50 9 -92.5 33t-74 60t-49 84t-17.5 106q0 85 33 163.5t90 139t133.5 96.5t163.5 36q97 0 163 -42.5t101 -107.5l-68 -42q-32 55 -79 87t-124 32q-68 0 -128 -30t-105 -80t-71 -115t-26 -134q0 -51 16.5 -91.5t45.5 -69t69 -43.5t88 -15
q71 0 121.5 25.5t95.5 69.5l53 -52q-24 -24 -52.5 -45.5t-62 -37.5t-73 -25t-86.5 -9h-5z" />
    <glyph glyph-name="Eacute" unicode="&#xc9;" horiz-adv-x="653" 
d="M539 907l80 -37l-142 -108h-72zM218 700h501l-20 -72h-422l-64 -239h377l-20 -72h-376l-66 -245h427l-19 -72h-506z" />
    <glyph glyph-name="Ntilde" unicode="&#xd1;" horiz-adv-x="786" 
d="M352 780q25 52 53 79t64 27q24 0 39 -9t32 -24t26.5 -22t22.5 -7q18 0 31.5 15.5t30.5 44.5l49 -22q-25 -51 -52.5 -78.5t-64.5 -27.5q-23 0 -38 9.5t-32 23.5q-17 16 -27 22.5t-23 6.5q-17 0 -31 -15t-31 -44zM218 700h73l285 -568l153 568h77l-188 -700h-63l-292 581
l-156 -581h-77z" />
    <glyph glyph-name="Odieresis" unicode="&#xd6;" horiz-adv-x="842" 
d="M426 857h90l-26 -95h-90zM603 857h89l-26 -95h-89zM400 60q69 0 127.5 29.5t101 78t67 111t24.5 127.5q0 49 -16 92t-46 74t-72.5 49t-94.5 18q-69 0 -127.5 -29.5t-101 -78t-67 -111t-24.5 -127.5q0 -50 16 -92.5t46 -73.5t72 -49t95 -18zM395 -13q-68 0 -124.5 23.5
t-97 64.5t-63 96.5t-22.5 119.5q0 81 31.5 157t86 134.5t129 94t161.5 35.5q68 0 124.5 -23.5t97 -64.5t63 -96t22.5 -119q0 -81 -31.5 -157.5t-86 -135t-129 -94t-161.5 -35.5z" />
    <glyph glyph-name="Udieresis" unicode="&#xdc;" horiz-adv-x="758" 
d="M402 857h90l-26 -95h-90zM579 857h89l-26 -95h-89zM347 -11q-63 0 -110.5 16.5t-79.5 46.5t-48.5 71t-16.5 90q0 55 15 109l100 378h80l-106 -399q-5 -16 -7.5 -36t-2.5 -43q0 -34 11 -63.5t34 -51t57 -33.5t81 -12q44 0 83.5 16t72.5 48q27 28 50.5 70.5t38.5 100.5
l109 403h79l-112 -417q-36 -133 -110 -207q-87 -87 -218 -87z" />
    <glyph glyph-name="aacute" unicode="&#xe1;" horiz-adv-x="576" 
d="M430 740l80 -37l-142 -108h-72zM207 50q33 0 65 11t59.5 31.5t48 48.5t29.5 62l10 36q-34 9 -76.5 16t-90.5 7q-69 0 -111.5 -33.5t-42.5 -87.5q0 -42 29 -66.5t80 -24.5zM182 -11q-33 0 -62.5 9.5t-52 27.5t-35.5 44.5t-13 61.5q0 43 17 78t48 59t73 37t92 13
q52 0 99 -8.5t84 -19.5l4 13q2 11 4 23.5t2 23.5q0 50 -34.5 77t-104.5 27q-42 0 -76.5 -7t-69.5 -20l-14 65q39 15 80 23.5t92 8.5q98 0 150.5 -43t52.5 -118q0 -16 -2.5 -34.5t-7.5 -36.5l-78 -293h-76l21 81q-35 -42 -83 -67t-110 -25z" />
    <glyph glyph-name="agrave" unicode="&#xe0;" horiz-adv-x="576" 
d="M272 703l81 37l56 -145h-54zM207 50q33 0 65 11t59.5 31.5t48 48.5t29.5 62l10 36q-34 9 -76.5 16t-90.5 7q-69 0 -111.5 -33.5t-42.5 -87.5q0 -42 29 -66.5t80 -24.5zM182 -11q-33 0 -62.5 9.5t-52 27.5t-35.5 44.5t-13 61.5q0 43 17 78t48 59t73 37t92 13q52 0 99 -8.5
t84 -19.5l4 13q2 11 4 23.5t2 23.5q0 50 -34.5 77t-104.5 27q-42 0 -76.5 -7t-69.5 -20l-14 65q39 15 80 23.5t92 8.5q98 0 150.5 -43t52.5 -118q0 -16 -2.5 -34.5t-7.5 -36.5l-78 -293h-76l21 81q-35 -42 -83 -67t-110 -25z" />
    <glyph glyph-name="acircumflex" unicode="&#xe2;" horiz-adv-x="576" 
d="M369 726h68l71 -131h-62l-54 67l-96 -67h-68zM207 50q33 0 65 11t59.5 31.5t48 48.5t29.5 62l10 36q-34 9 -76.5 16t-90.5 7q-69 0 -111.5 -33.5t-42.5 -87.5q0 -42 29 -66.5t80 -24.5zM182 -11q-33 0 -62.5 9.5t-52 27.5t-35.5 44.5t-13 61.5q0 43 17 78t48 59t73 37
t92 13q52 0 99 -8.5t84 -19.5l4 13q2 11 4 23.5t2 23.5q0 50 -34.5 77t-104.5 27q-42 0 -76.5 -7t-69.5 -20l-14 65q39 15 80 23.5t92 8.5q98 0 150.5 -43t52.5 -118q0 -16 -2.5 -34.5t-7.5 -36.5l-78 -293h-76l21 81q-35 -42 -83 -67t-110 -25z" />
    <glyph glyph-name="adieresis" unicode="&#xe4;" horiz-adv-x="576" 
d="M260 690h90l-26 -95h-90zM437 690h89l-26 -95h-89zM207 50q33 0 65 11t59.5 31.5t48 48.5t29.5 62l10 36q-34 9 -76.5 16t-90.5 7q-69 0 -111.5 -33.5t-42.5 -87.5q0 -42 29 -66.5t80 -24.5zM182 -11q-33 0 -62.5 9.5t-52 27.5t-35.5 44.5t-13 61.5q0 43 17 78t48 59
t73 37t92 13q52 0 99 -8.5t84 -19.5l4 13q2 11 4 23.5t2 23.5q0 50 -34.5 77t-104.5 27q-42 0 -76.5 -7t-69.5 -20l-14 65q39 15 80 23.5t92 8.5q98 0 150.5 -43t52.5 -118q0 -16 -2.5 -34.5t-7.5 -36.5l-78 -293h-76l21 81q-35 -42 -83 -67t-110 -25z" />
    <glyph glyph-name="atilde" unicode="&#xe3;" horiz-adv-x="576" 
d="M205 613q25 52 53 79t64 27q24 0 39 -9t32 -24t26.5 -22t22.5 -7q18 0 31.5 15.5t30.5 44.5l49 -22q-25 -51 -52.5 -78.5t-64.5 -27.5q-23 0 -38 9.5t-32 23.5q-17 16 -27 22.5t-23 6.5q-17 0 -31 -15t-31 -44zM207 50q33 0 65 11t59.5 31.5t48 48.5t29.5 62l10 36
q-34 9 -76.5 16t-90.5 7q-69 0 -111.5 -33.5t-42.5 -87.5q0 -42 29 -66.5t80 -24.5zM182 -11q-33 0 -62.5 9.5t-52 27.5t-35.5 44.5t-13 61.5q0 43 17 78t48 59t73 37t92 13q52 0 99 -8.5t84 -19.5l4 13q2 11 4 23.5t2 23.5q0 50 -34.5 77t-104.5 27q-42 0 -76.5 -7
t-69.5 -20l-14 65q39 15 80 23.5t92 8.5q98 0 150.5 -43t52.5 -118q0 -16 -2.5 -34.5t-7.5 -36.5l-78 -293h-76l21 81q-35 -42 -83 -67t-110 -25z" />
    <glyph glyph-name="aring" unicode="&#xe5;" horiz-adv-x="576" 
d="M386 633q30 0 49.5 21.5t19.5 50.5q0 22 -14.5 36t-41.5 14q-30 0 -50 -21.5t-20 -50.5q0 -22 14.5 -36t42.5 -14zM385 594q-45 0 -72 25t-27 63q0 23 9 43t24.5 35t36 24t43.5 9q45 0 72.5 -25t27.5 -63q0 -23 -9 -43t-24.5 -35t-36.5 -24t-44 -9zM207 50q33 0 65 11
t59.5 31.5t48 48.5t29.5 62l10 36q-34 9 -76.5 16t-90.5 7q-69 0 -111.5 -33.5t-42.5 -87.5q0 -42 29 -66.5t80 -24.5zM182 -11q-33 0 -62.5 9.5t-52 27.5t-35.5 44.5t-13 61.5q0 43 17 78t48 59t73 37t92 13q52 0 99 -8.5t84 -19.5l4 13q2 11 4 23.5t2 23.5q0 50 -34.5 77
t-104.5 27q-42 0 -76.5 -7t-69.5 -20l-14 65q39 15 80 23.5t92 8.5q98 0 150.5 -43t52.5 -118q0 -16 -2.5 -34.5t-7.5 -36.5l-78 -293h-76l21 81q-35 -42 -83 -67t-110 -25z" />
    <glyph glyph-name="ccedilla" unicode="&#xe7;" horiz-adv-x="562" 
d="M217 -5q-35 9 -65.5 27.5t-53.5 46.5t-36.5 64.5t-13.5 80.5q0 63 24.5 120t66 100t96.5 68.5t117 25.5q40 0 73 -10t58.5 -26.5t44 -38.5t30.5 -46l-62 -39q-11 19 -25 35.5t-31.5 29t-40.5 20t-52 7.5q-44 0 -84 -20t-70 -53.5t-48 -78t-18 -92.5q0 -38 12.5 -68
t34 -50.5t49.5 -31t58 -10.5q46 0 82.5 18.5t70.5 49.5l45 -50q-40 -38 -88 -62t-113 -24h-2l-104 -143l-66 34z" />
    <glyph glyph-name="eacute" unicode="&#xe9;" horiz-adv-x="589" 
d="M437 740l80 -37l-142 -108h-72zM470 291q2 8 3 17t1 22q0 27 -7.5 51t-23.5 42t-40.5 29t-57.5 11q-38 0 -71.5 -13.5t-60 -37t-46 -54.5t-30.5 -67h333zM126 229q-1 -5 -1 -9v-9q0 -71 42 -113.5t114 -42.5q50 0 87 16t72 45l40 -51q-38 -32 -86.5 -54.5t-116.5 -22.5
q-51 0 -93.5 16t-72.5 45t-46.5 69.5t-16.5 89.5q0 59 22.5 116.5t63 102.5t95.5 73t120 28q49 0 86.5 -16t62.5 -43t38 -63t13 -76q0 -26 -5 -51.5t-14 -49.5h-404z" />
    <glyph glyph-name="egrave" unicode="&#xe8;" horiz-adv-x="589" 
d="M276 703l81 37l56 -145h-54zM470 291q2 8 3 17t1 22q0 27 -7.5 51t-23.5 42t-40.5 29t-57.5 11q-38 0 -71.5 -13.5t-60 -37t-46 -54.5t-30.5 -67h333zM126 229q-1 -5 -1 -9v-9q0 -71 42 -113.5t114 -42.5q50 0 87 16t72 45l40 -51q-38 -32 -86.5 -54.5t-116.5 -22.5
q-51 0 -93.5 16t-72.5 45t-46.5 69.5t-16.5 89.5q0 59 22.5 116.5t63 102.5t95.5 73t120 28q49 0 86.5 -16t62.5 -43t38 -63t13 -76q0 -26 -5 -51.5t-14 -49.5h-404z" />
    <glyph glyph-name="ecircumflex" unicode="&#xea;" horiz-adv-x="589" 
d="M369 726h68l71 -131h-62l-54 67l-96 -67h-68zM470 291q2 8 3 17t1 22q0 27 -7.5 51t-23.5 42t-40.5 29t-57.5 11q-38 0 -71.5 -13.5t-60 -37t-46 -54.5t-30.5 -67h333zM126 229q-1 -5 -1 -9v-9q0 -71 42 -113.5t114 -42.5q50 0 87 16t72 45l40 -51q-38 -32 -86.5 -54.5
t-116.5 -22.5q-51 0 -93.5 16t-72.5 45t-46.5 69.5t-16.5 89.5q0 59 22.5 116.5t63 102.5t95.5 73t120 28q49 0 86.5 -16t62.5 -43t38 -63t13 -76q0 -26 -5 -51.5t-14 -49.5h-404z" />
    <glyph glyph-name="edieresis" unicode="&#xeb;" horiz-adv-x="589" 
d="M265 690h90l-26 -95h-90zM442 690h89l-26 -95h-89zM470 291q2 8 3 17t1 22q0 27 -7.5 51t-23.5 42t-40.5 29t-57.5 11q-38 0 -71.5 -13.5t-60 -37t-46 -54.5t-30.5 -67h333zM126 229q-1 -5 -1 -9v-9q0 -71 42 -113.5t114 -42.5q50 0 87 16t72 45l40 -51
q-38 -32 -86.5 -54.5t-116.5 -22.5q-51 0 -93.5 16t-72.5 45t-46.5 69.5t-16.5 89.5q0 59 22.5 116.5t63 102.5t95.5 73t120 28q49 0 86.5 -16t62.5 -43t38 -63t13 -76q0 -26 -5 -51.5t-14 -49.5h-404z" />
    <glyph glyph-name="iacute" unicode="&#xed;" horiz-adv-x="264" 
d="M306 740l80 -37l-142 -108h-72zM163 517h77l-139 -517h-77z" />
    <glyph glyph-name="igrave" unicode="&#xec;" horiz-adv-x="264" 
d="M104 703l81 37l56 -145h-54zM163 517h77l-139 -517h-77z" />
    <glyph glyph-name="icircumflex" unicode="&#xee;" horiz-adv-x="264" 
d="M215 726h68l71 -131h-62l-54 67l-96 -67h-68zM163 517h77l-139 -517h-77z" />
    <glyph glyph-name="idieresis" unicode="&#xef;" horiz-adv-x="264" 
d="M111 690h90l-26 -95h-90zM288 690h89l-26 -95h-89zM163 517h77l-139 -517h-77z" />
    <glyph glyph-name="ntilde" unicode="&#xf1;" horiz-adv-x="613" 
d="M224 613q25 52 53 79t64 27q24 0 39 -9t32 -24t26.5 -22t22.5 -7q18 0 31.5 15.5t30.5 44.5l49 -22q-25 -51 -52.5 -78.5t-64.5 -27.5q-23 0 -38 9.5t-32 23.5q-17 16 -27 22.5t-23 6.5q-17 0 -31 -15t-31 -44zM155 517h77l-22 -84q35 40 78 67.5t102 27.5q75 0 120 -43
t45 -117q0 -18 -4 -39t-9 -41l-76 -288h-77l78 293q4 13 6 29t2 29q0 51 -31 79.5t-85 28.5q-30 0 -59 -12.5t-54 -34.5t-44.5 -52.5t-29.5 -67.5l-78 -292h-77z" />
    <glyph glyph-name="oacute" unicode="&#xf3;" horiz-adv-x="638" 
d="M446 740l80 -37l-142 -108h-72zM289 57q43 0 83 19.5t71 52.5t49 76t18 89q0 79 -45 122.5t-117 43.5q-45 0 -85 -20.5t-70 -53.5t-48 -76t-18 -88q0 -79 45 -122t117 -43zM284 -12q-53 0 -96.5 17.5t-74.5 48.5t-47.5 73.5t-16.5 92.5q0 60 24.5 116t66 98.5t96.5 68
t117 25.5q53 0 96.5 -17.5t74.5 -48t48 -73t17 -92.5q0 -62 -25 -118t-67 -98.5t-97 -67.5t-116 -25z" />
    <glyph glyph-name="ograve" unicode="&#xf2;" horiz-adv-x="638" 
d="M287 703l81 37l56 -145h-54zM289 57q43 0 83 19.5t71 52.5t49 76t18 89q0 79 -45 122.5t-117 43.5q-45 0 -85 -20.5t-70 -53.5t-48 -76t-18 -88q0 -79 45 -122t117 -43zM284 -12q-53 0 -96.5 17.5t-74.5 48.5t-47.5 73.5t-16.5 92.5q0 60 24.5 116t66 98.5t96.5 68
t117 25.5q53 0 96.5 -17.5t74.5 -48t48 -73t17 -92.5q0 -62 -25 -118t-67 -98.5t-97 -67.5t-116 -25z" />
    <glyph glyph-name="ocircumflex" unicode="&#xf4;" horiz-adv-x="638" 
d="M395 726h68l71 -131h-62l-54 67l-96 -67h-68zM289 57q43 0 83 19.5t71 52.5t49 76t18 89q0 79 -45 122.5t-117 43.5q-45 0 -85 -20.5t-70 -53.5t-48 -76t-18 -88q0 -79 45 -122t117 -43zM284 -12q-53 0 -96.5 17.5t-74.5 48.5t-47.5 73.5t-16.5 92.5q0 60 24.5 116
t66 98.5t96.5 68t117 25.5q53 0 96.5 -17.5t74.5 -48t48 -73t17 -92.5q0 -62 -25 -118t-67 -98.5t-97 -67.5t-116 -25z" />
    <glyph glyph-name="odieresis" unicode="&#xf6;" horiz-adv-x="638" 
d="M278 690h90l-26 -95h-90zM455 690h89l-26 -95h-89zM289 57q43 0 83 19.5t71 52.5t49 76t18 89q0 79 -45 122.5t-117 43.5q-45 0 -85 -20.5t-70 -53.5t-48 -76t-18 -88q0 -79 45 -122t117 -43zM284 -12q-53 0 -96.5 17.5t-74.5 48.5t-47.5 73.5t-16.5 92.5q0 60 24.5 116
t66 98.5t96.5 68t117 25.5q53 0 96.5 -17.5t74.5 -48t48 -73t17 -92.5q0 -62 -25 -118t-67 -98.5t-97 -67.5t-116 -25z" />
    <glyph glyph-name="otilde" unicode="&#xf5;" horiz-adv-x="638" 
d="M225 613q25 52 53 79t64 27q24 0 39 -9t32 -24t26.5 -22t22.5 -7q18 0 31.5 15.5t30.5 44.5l49 -22q-25 -51 -52.5 -78.5t-64.5 -27.5q-23 0 -38 9.5t-32 23.5q-17 16 -27 22.5t-23 6.5q-17 0 -31 -15t-31 -44zM289 57q43 0 83 19.5t71 52.5t49 76t18 89q0 79 -45 122.5
t-117 43.5q-45 0 -85 -20.5t-70 -53.5t-48 -76t-18 -88q0 -79 45 -122t117 -43zM284 -12q-53 0 -96.5 17.5t-74.5 48.5t-47.5 73.5t-16.5 92.5q0 60 24.5 116t66 98.5t96.5 68t117 25.5q53 0 96.5 -17.5t74.5 -48t48 -73t17 -92.5q0 -62 -25 -118t-67 -98.5t-97 -67.5
t-116 -25z" />
    <glyph glyph-name="uacute" unicode="&#xfa;" horiz-adv-x="613" 
d="M455 740l80 -37l-142 -108h-72zM222 -11q-75 0 -119.5 43t-44.5 117q0 18 4 39t9 41l76 288h77l-79 -293q-3 -13 -5 -29t-2 -29q0 -51 30.5 -79.5t84.5 -28.5q30 0 59.5 12.5t54.5 34.5t44 53t29 68l78 291h77l-138 -517h-77l23 84q-35 -40 -78.5 -67.5t-102.5 -27.5z
" />
    <glyph glyph-name="ugrave" unicode="&#xf9;" horiz-adv-x="613" 
d="M286 703l81 37l56 -145h-54zM222 -11q-75 0 -119.5 43t-44.5 117q0 18 4 39t9 41l76 288h77l-79 -293q-3 -13 -5 -29t-2 -29q0 -51 30.5 -79.5t84.5 -28.5q30 0 59.5 12.5t54.5 34.5t44 53t29 68l78 291h77l-138 -517h-77l23 84q-35 -40 -78.5 -67.5t-102.5 -27.5z" />
    <glyph glyph-name="ucircumflex" unicode="&#xfb;" horiz-adv-x="613" 
d="M386 726h68l71 -131h-62l-54 67l-96 -67h-68zM222 -11q-75 0 -119.5 43t-44.5 117q0 18 4 39t9 41l76 288h77l-79 -293q-3 -13 -5 -29t-2 -29q0 -51 30.5 -79.5t84.5 -28.5q30 0 59.5 12.5t54.5 34.5t44 53t29 68l78 291h77l-138 -517h-77l23 84q-35 -40 -78.5 -67.5
t-102.5 -27.5z" />
    <glyph glyph-name="udieresis" unicode="&#xfc;" horiz-adv-x="613" 
d="M280 690h90l-26 -95h-90zM457 690h89l-26 -95h-89zM222 -11q-75 0 -119.5 43t-44.5 117q0 18 4 39t9 41l76 288h77l-79 -293q-3 -13 -5 -29t-2 -29q0 -51 30.5 -79.5t84.5 -28.5q30 0 59.5 12.5t54.5 34.5t44 53t29 68l78 291h77l-138 -517h-77l23 84
q-35 -40 -78.5 -67.5t-102.5 -27.5z" />
    <glyph glyph-name="dagger" unicode="&#x2020;" horiz-adv-x="411" 
d="M240 520l-125 -8l15 55l120 -8l30 141h61l-47 -141l125 8l-15 -55l-122 8l-68 -282h-55z" />
    <glyph glyph-name="degree" unicode="&#xb0;" horiz-adv-x="387" 
d="M228 450q22 0 42.5 10t35.5 26.5t24 37.5t9 44q0 40 -23 63t-60 23q-23 0 -43 -10t-35 -26.5t-24 -37.5t-9 -44q0 -40 23 -63t60 -23zM223 398q-30 0 -55 10t-42.5 28t-27.5 42.5t-10 53.5q0 34 13.5 65.5t37 55.5t55 38.5t67.5 14.5q30 0 55 -10t42.5 -28t27.5 -42.5
t10 -52.5q0 -35 -13.5 -66.5t-37 -55.5t-55 -38.5t-67.5 -14.5z" />
    <glyph glyph-name="cent" unicode="&#xa2;" horiz-adv-x="566" 
d="M383 556h-5q-48 0 -89 -20t-72 -53.5t-48.5 -78.5t-17.5 -94q0 -48 21.5 -84t59.5 -56zM204 105q-61 26 -96 79.5t-35 124.5q0 65 24 122.5t66 100.5t98 68t120 25h13.5t12.5 -1l33 82h64l-37 -93q49 -16 80.5 -45.5t48.5 -64.5l-61 -39q-17 29 -39.5 51t-57.5 33
l-154 -393q6 -1 12 -1.5t13 -0.5q51 0 91 17.5t75 48.5l45 -51q-40 -37 -91 -60.5t-121 -23.5q-12 0 -24 1t-23 3l-37 -94h-64z" />
    <glyph glyph-name="sterling" unicode="&#xa3;" horiz-adv-x="629" 
d="M7 46l89 21l62 228h-84l19 69h83l33 121q13 48 33 88t47 66q33 34 74 51.5t95 17.5q73 0 120 -32t74 -81l-65 -42q-23 38 -53.5 60t-80.5 22q-33 0 -59.5 -11.5t-47.5 -32.5q-41 -41 -62 -120l-29 -107h280l-19 -69h-280l-60 -225h356l-19 -70h-518z" />
    <glyph glyph-name="section" unicode="&#xa7;" horiz-adv-x="632" 
d="M394 257q26 0 49 6t39.5 16.5t26 25t9.5 30.5q0 27 -28 47t-92 41q-32 11 -57 16t-56 5q-26 0 -49 -6t-39.5 -16.5t-26 -25t-9.5 -30.5q0 -27 28 -47t92 -41q32 -11 57 -16t56 -5zM287 -10q-36 0 -69 6.5t-62 18t-53 27t-41 33.5l50 50q29 -29 77 -50t105 -21
q46 0 77 18.5t31 48.5q0 28 -30 47.5t-99 42.5q-45 15 -80 29.5t-59 31.5t-36.5 37.5t-12.5 46.5q0 28 13.5 51t37.5 39.5t57 26.5t73 12q-26 14 -46 37.5t-20 55.5q0 30 15 55t41.5 42t61.5 26.5t75 9.5q35 0 68 -6.5t62 -18t53 -27t41 -33.5l-49 -50q-29 28 -77 49.5
t-106 21.5q-46 0 -77 -18.5t-31 -48.5q0 -28 30.5 -48t98.5 -42q45 -15 80 -29.5t59 -31.5t36.5 -37.5t12.5 -46.5q0 -28 -13.5 -51t-37.5 -39.5t-57 -26.5t-73 -12q27 -14 46.5 -37.5t19.5 -55.5q0 -30 -15 -55t-41 -42t-61 -26.5t-75 -9.5z" />
    <glyph glyph-name="bullet" unicode="&#x2022;" horiz-adv-x="478" 
d="M236 216q-48 0 -78 30t-30 81q0 31 11.5 60.5t32 51.5t47.5 35.5t59 13.5q48 0 78 -29.5t30 -80.5q0 -32 -12 -61t-32 -51.5t-47.5 -36t-58.5 -13.5z" />
    <glyph glyph-name="paragraph" unicode="&#xb6;" horiz-adv-x="517" 
d="M334 249q-50 2 -93 14t-75 35t-50 58t-18 84q0 59 22 107t65 82t104.5 52.5t141.5 18.5h105l-188 -700h-80z" />
    <glyph glyph-name="germandbls" unicode="&#xdf;" horiz-adv-x="623" 
d="M239 62q63 0 107.5 12t73 32t41.5 46t13 55q0 99 -163 125l16 60q106 25 153 68t47 103q0 47 -33 76.5t-90 29.5q-65 0 -110.5 -48t-68.5 -133l-131 -488h-77l135 501q14 52 35.5 94.5t51.5 71.5q33 34 76.5 52t93.5 18q43 0 79 -13t62 -35.5t40 -53.5t14 -67
q0 -42 -15.5 -75t-42 -58t-62 -42.5t-76.5 -29.5q30 -9 56 -22.5t45.5 -32.5t31 -44.5t11.5 -57.5q0 -45 -21.5 -83.5t-63.5 -66.5t-103.5 -43.5t-141.5 -14.5z" />
    <glyph glyph-name="registered" unicode="&#xae;" horiz-adv-x="830" 
d="M458 364q38 0 63 17.5t25 49.5q0 31 -22.5 48t-62.5 17h-109v-132h106zM297 546h166q62 0 100.5 -30t38.5 -82q0 -46 -26.5 -73t-68.5 -37l114 -149h-67l-107 140h-95v-140h-55v371zM438 19q70 0 130.5 26.5t105 71.5t69.5 105.5t25 128.5t-25 128t-69 105t-104 71
t-130 26q-71 0 -131 -26.5t-104.5 -71.5t-69.5 -105.5t-25 -128.5t25 -128t69 -105t104 -71t130 -26zM438 -12q-76 0 -142 28.5t-114.5 77.5t-76.5 115t-28 140t28 140t77 115.5t115.5 78.5t142.5 29t142 -28.5t114.5 -77.5t76.5 -115t28 -140t-28 -140t-77 -115.5
t-115.5 -78.5t-142.5 -29z" />
    <glyph glyph-name="copyright" unicode="&#xa9;" horiz-adv-x="830" 
d="M443 163q-40 0 -74 15t-59 41t-39 61t-14 75q0 39 14 74t39 61.5t59 41.5t75 15q51 0 84 -17t60 -43l-36 -40q-22 21 -48.5 35.5t-59.5 14.5q-29 0 -53 -11t-41.5 -30.5t-27 -45t-9.5 -54.5t10 -55t28 -45.5t42 -30.5t51 -11q36 0 60.5 13.5t50.5 36.5l36 -35
q-30 -30 -63.5 -48t-84.5 -18zM438 19q70 0 130.5 26.5t105 71.5t69.5 105.5t25 128.5t-25 128t-69 105t-104 71t-130 26q-71 0 -131 -26.5t-104.5 -71.5t-69.5 -105.5t-25 -128.5t25 -128t69 -105t104 -71t130 -26zM438 -12q-76 0 -142 28.5t-114.5 77.5t-76.5 115t-28 140
t28 140t77 115.5t115.5 78.5t142.5 29t142 -28.5t114.5 -77.5t76.5 -115t28 -140t-28 -140t-77 -115.5t-115.5 -78.5t-142.5 -29z" />
    <glyph glyph-name="trademark" unicode="&#x2122;" horiz-adv-x="693" 
d="M224 658h-98l12 42h241l-12 -42h-98l-75 -266h-44zM448 700h42l65 -169l154 169h51l-87 -308h-43l67 236l-155 -167h-5l-65 167l-67 -236h-44z" />
    <glyph glyph-name="acute" unicode="&#xb4;" 
d="M373 740l80 -37l-142 -108h-72z" />
    <glyph glyph-name="dieresis" unicode="&#xa8;" 
d="M224 690h90l-26 -95h-90zM401 690h89l-26 -95h-89z" />
    <glyph glyph-name="AE" unicode="&#xc6;" horiz-adv-x="1065" 
d="M511 256l100 374h-25l-318 -374h243zM559 700h560l-20 -72h-409l-64 -239h364l-19 -72h-364l-66 -245h414l-19 -72h-493l50 185h-284l-158 -185h-91z" />
    <glyph glyph-name="Oslash" unicode="&#xd8;" horiz-adv-x="842" 
d="M400 58q69 0 128 30t102 79t67.5 111.5t24.5 127.5t-28 119l-464 -396q29 -33 72.5 -52t97.5 -19zM660 573q-30 32 -72.5 50t-96.5 18q-69 0 -128 -30t-102 -78.5t-67.5 -111t-24.5 -128.5q0 -64 26 -116zM395 -13q-70 0 -127 25t-97 68l-100 -85h-90l153 131
q-46 72 -46 165q0 81 31.5 157t86 134.5t129 94t161.5 35.5q69 0 125.5 -24t97.5 -66l96 83h90l-149 -129q23 -35 35 -77.5t12 -89.5q0 -81 -31.5 -157.5t-86 -135t-129 -94t-161.5 -35.5z" />
    <glyph glyph-name="plusminus" unicode="&#xb1;" horiz-adv-x="606" 
d="M259 -12q-48 0 -88 10t-72 27.5t-56.5 40.5t-40.5 50l63 43q30 -44 77 -71.5t122 -27.5q41 0 74.5 11t57.5 29.5t37 43.5t13 53q0 32 -14 55t-39.5 38t-60 22t-74.5 7h-43l18 68h51q105 0 167 37t62 102q0 26 -11 47t-30.5 35.5t-45.5 22.5t-57 8q-57 0 -99.5 -19
t-81.5 -51l-46 52q21 19 45.5 35.5t53 28.5t61.5 19t72 7q47 0 87.5 -12.5t70.5 -35t47 -55.5t17 -73q0 -75 -52.5 -121.5t-143.5 -63.5q25 -8 48.5 -21.5t41 -32.5t28 -43.5t10.5 -55.5q0 -44 -20.5 -82.5t-56.5 -66.5t-85 -44t-107 -16z" />
    <glyph glyph-name="yen" unicode="&#xa5;" horiz-adv-x="703" 
d="M271 116h-203l16 62h203l23 88h-203l17 62h177l-158 372h88l141 -344l326 344h99l-360 -372h174l-17 -62h-206l-23 -88h206l-17 -62h-206l-30 -116h-78z" />
    <glyph glyph-name="mu" unicode="&#xb5;" horiz-adv-x="842" 
d="M400 60q45 0 86 13.5t76 37.5l-109 128l62 47l102 -129q48 49 75.5 114t27.5 135q0 49 -16 92t-46 74t-72.5 49t-94.5 18q-69 0 -127.5 -29.5t-101 -78t-67 -111t-24.5 -127.5q0 -50 16 -92.5t46 -73.5t72 -49t95 -18zM607 53q-46 -31 -99.5 -48.5t-112.5 -17.5
q-68 0 -124.5 23.5t-97 64.5t-63 96.5t-22.5 119.5q0 81 31.5 157t86 134.5t129 94t161.5 35.5q68 0 124.5 -23.5t97 -64.5t63 -96t22.5 -119q0 -89 -37 -171t-102 -142l70 -79l-62 -46z" />
    <glyph glyph-name="mu" unicode="&#x3bc;" horiz-adv-x="842" 
d="M400 60q45 0 86 13.5t76 37.5l-109 128l62 47l102 -129q48 49 75.5 114t27.5 135q0 49 -16 92t-46 74t-72.5 49t-94.5 18q-69 0 -127.5 -29.5t-101 -78t-67 -111t-24.5 -127.5q0 -50 16 -92.5t46 -73.5t72 -49t95 -18zM607 53q-46 -31 -99.5 -48.5t-112.5 -17.5
q-68 0 -124.5 23.5t-97 64.5t-63 96.5t-22.5 119.5q0 81 31.5 157t86 134.5t129 94t161.5 35.5q68 0 124.5 -23.5t97 -64.5t63 -96t22.5 -119q0 -89 -37 -171t-102 -142l70 -79l-62 -46z" />
    <glyph glyph-name="pi" unicode="&#x3c0;" horiz-adv-x="830" 
d="M456 347q43 0 68.5 19.5t25.5 54.5q0 37 -25 54.5t-68 17.5h-86v-146h85zM316 543h146q66 0 105 -31.5t39 -89.5q0 -32 -12.5 -55t-33.5 -39t-48.5 -23.5t-57.5 -7.5h-83v-125h-55v371zM438 19q70 0 130.5 26.5t105 71.5t69.5 105.5t25 128.5t-25 128t-69 105t-104 71
t-130 26q-71 0 -131 -26.5t-104.5 -71.5t-69.5 -105.5t-25 -128.5t25 -128t69 -105t104 -71t130 -26zM438 -12q-76 0 -142 28.5t-114.5 77.5t-76.5 115t-28 140t28 140t77 115.5t115.5 78.5t142.5 29t142 -28.5t114.5 -77.5t76.5 -115t28 -140t-28 -140t-77 -115.5
t-115.5 -78.5t-142.5 -29z" />
    <glyph glyph-name="ordfeminine" unicode="&#xaa;" horiz-adv-x="390" 
d="M207 446q18 0 35.5 6.5t32.5 18t25.5 26.5t15.5 32l4 13q-17 5 -37.5 8t-43.5 3q-36 0 -58.5 -17.5t-22.5 -46.5q0 -19 13 -31t36 -12zM68 336h250l-12 -47h-250zM190 407q-36 0 -60.5 20.5t-24.5 55.5q0 50 36.5 78.5t93.5 28.5q26 0 49.5 -5t43.5 -10l2 6q2 5 3 12
t1 12q0 25 -17.5 39t-54.5 14q-23 0 -42.5 -4t-37.5 -11l-9 43q22 8 46 13t53 5q55 0 84 -23.5t29 -65.5q0 -10 -2 -20l-4 -20l-43 -162h-51l12 46q-20 -23 -46.5 -37.5t-60.5 -14.5z" />
    <glyph glyph-name="ordmasculine" unicode="&#xba;" horiz-adv-x="393" 
d="M248 451q23 0 43.5 10t35.5 27t24 39t9 45q0 39 -23 63t-60 24q-24 0 -44.5 -10t-35.5 -27t-23.5 -39t-8.5 -45q0 -39 23 -63t60 -24zM70 336h270l-12 -47h-270zM245 405q-60 0 -96.5 37t-36.5 94q0 33 13 64t36 54t53.5 37t65.5 14q30 0 54.5 -10t42 -27.5t27 -41.5
t9.5 -52q0 -33 -13 -64t-36 -54t-53.5 -37t-65.5 -14z" />
    <glyph glyph-name="Omega" unicode="&#x3a9;" horiz-adv-x="750" 
d="M167 449h-71l18 68h71l17 62q20 78 65 115.5t112 37.5q61 0 103 -22l-18 -66q-23 11 -42.5 16t-42.5 5q-37 0 -63.5 -23.5t-40.5 -74.5l-13 -50h169l-19 -68h-168l-121 -449h-77zM543 449h-72l18 68h71l17 62q20 78 65 115.5t113 37.5q60 0 102 -22l-18 -66
q-23 11 -42.5 16t-42.5 5q-37 0 -63.5 -23.5t-40.5 -74.5l-13 -50h169l-18 -68h-169l-121 -449h-76z" />
    <glyph glyph-name="Omega" unicode="&#x2126;" horiz-adv-x="750" 
d="M167 449h-71l18 68h71l17 62q20 78 65 115.5t112 37.5q61 0 103 -22l-18 -66q-23 11 -42.5 16t-42.5 5q-37 0 -63.5 -23.5t-40.5 -74.5l-13 -50h169l-19 -68h-168l-121 -449h-77zM543 449h-72l18 68h71l17 62q20 78 65 115.5t113 37.5q60 0 102 -22l-18 -66
q-23 11 -42.5 16t-42.5 5q-37 0 -63.5 -23.5t-40.5 -74.5l-13 -50h169l-18 -68h-169l-121 -449h-76z" />
    <glyph glyph-name="ae" unicode="&#xe6;" horiz-adv-x="958" 
d="M427 237q-36 11 -81.5 18t-93.5 7q-69 0 -111.5 -33.5t-42.5 -87.5q0 -42 29 -66.5t80 -24.5q66 0 120 29t102 80q-2 14 -3.5 27t-1.5 27q0 9 3 24zM840 291q2 8 3 17t1 22q0 27 -7.5 51t-23.5 42t-40.5 29t-57.5 11q-38 0 -71.5 -13.5t-60 -37t-46 -54.5t-30.5 -67h333z
M445 107q-51 -53 -115 -85.5t-148 -32.5q-33 0 -62.5 9.5t-52 27.5t-35.5 44.5t-13 61.5q0 43 17 78t48 59t73 37t92 13q52 0 99 -8.5t84 -19.5l4 13q2 11 4 23.5t2 23.5q0 50 -34.5 77t-104.5 27q-42 0 -76.5 -7t-69.5 -20l-14 65q39 15 80 23.5t92 8.5q73 0 123 -28.5
t67 -79.5q39 49 94 80t121 31q49 0 86 -16t62 -43t38 -63t13 -76q0 -26 -5 -51.5t-14 -49.5h-404q-1 -5 -1 -9v-9q0 -71 42 -113.5t114 -42.5q51 0 87.5 16t72.5 45l40 -51q-38 -32 -88 -54.5t-114 -22.5q-75 0 -127 31.5t-77 87.5z" />
    <glyph glyph-name="oslash" unicode="&#xf8;" horiz-adv-x="638" 
d="M288 55q44 0 84.5 20t71 53t49 76t18.5 90q0 44 -15 79l-326 -274q44 -44 118 -44zM466 418q-43 43 -117 43q-45 0 -85.5 -20.5t-71 -54t-48.5 -76.5t-18 -88q0 -22 4 -40.5t11 -35.5zM284 -12q-54 0 -96 17.5t-73 47.5l-70 -58h-85l120 101q-31 54 -31 124
q0 60 24.5 116t66 98.5t96.5 68t117 25.5q53 0 95.5 -16.5t72.5 -46.5l71 58h85l-121 -101q33 -54 33 -125q0 -62 -25 -118t-67 -98.5t-97 -67.5t-116 -25z" />
    <glyph glyph-name="questiondown" unicode="&#xbf;" horiz-adv-x="537" 
d="M251 -9q-48 0 -86.5 13.5t-65.5 37.5t-41 56.5t-14 69.5q0 48 20 86t55 66t83 46t104 26l40 110h50l-27 -162l-7 -5q-53 -4 -96.5 -16.5t-74.5 -32.5t-48 -48.5t-17 -63.5q0 -54 38 -82.5t95 -28.5q54 0 101 24t81 56l45 -52q-43 -43 -102 -71.5t-133 -28.5zM377 700h92
l-28 -105h-92z" />
    <glyph glyph-name="exclamdown" unicode="&#xa1;" horiz-adv-x="271" 
d="M36 57l143 445h43l-95 -445l-16 -57h-90zM208 700h92l-29 -105h-91z" />
    <glyph glyph-name="radical" unicode="&#x221a;" horiz-adv-x="1014" 
d="M971 730h76l-196 -730h-76zM167 449h-71l18 68h71l17 62q20 78 65 115.5t112 37.5q61 0 103 -22l-18 -66q-23 11 -42.5 16t-42.5 5q-37 0 -63.5 -23.5t-40.5 -74.5l-13 -50h169l-19 -68h-168l-121 -449h-77zM543 449h-72l18 68h71l17 62q20 78 65 115.5t113 37.5
q60 0 102 -22l-18 -66q-23 11 -42.5 16t-42.5 5q-37 0 -63.5 -23.5t-40.5 -74.5l-13 -50h169l-18 -68h-169l-121 -449h-76z" />
    <glyph glyph-name="florin" unicode="&#x192;" horiz-adv-x="531" 
d="M41 -10q-23 0 -38.5 2.5t-27.5 6.5l19 64q8 -2 19 -4.5t28 -2.5q31 0 55.5 22.5t46.5 72.5l98 222h-97l18 67h108l54 121q32 75 77 112t108 37q29 0 51.5 -4.5t41.5 -12.5l-20 -64q-15 6 -32.5 10t-39.5 4q-38 0 -67 -25t-52 -78l-44 -100h150l-17 -67h-162l-107 -243
q-35 -79 -76.5 -109.5t-93.5 -30.5z" />
    <glyph glyph-name="approxequal" unicode="&#x2248;" horiz-adv-x="1014" 
d="M914 517h76l-139 -517h-76zM167 449h-71l18 68h71l17 62q20 78 65 115.5t112 37.5q61 0 103 -22l-18 -66q-23 11 -42.5 16t-42.5 5q-37 0 -63.5 -23.5t-40.5 -74.5l-13 -50h169l-19 -68h-168l-121 -449h-77zM543 449h-72l18 68h71l17 62q20 78 65 115.5t113 37.5
q60 0 102 -22l-18 -66q-23 11 -42.5 16t-42.5 5q-37 0 -63.5 -23.5t-40.5 -74.5l-13 -50h169l-18 -68h-169l-121 -449h-76zM962 715h88l-24 -85h-87z" />
    <glyph glyph-name="guillemotleft" unicode="&#xab;" horiz-adv-x="550" 
d="M45 252l2 8l222 216l50 -42l-188 -187l82 -177l-63 -31zM267 252l2 8l222 216l50 -42l-188 -187l82 -177l-63 -31z" />
    <glyph glyph-name="guillemotright" unicode="&#xbb;" horiz-adv-x="550" 
d="M8 80l187 187l-82 177l63 31l105 -213l-2 -8l-221 -216zM230 80l187 187l-82 177l63 31l105 -213l-2 -8l-222 -216z" />
    <glyph glyph-name="ellipsis" unicode="&#x2026;" horiz-adv-x="734" 
d="M40 104h91l-28 -104h-91zM281 104h90l-28 -104h-91zM521 104h91l-28 -104h-91z" />
    <glyph glyph-name="nonbreakingspace" unicode="&#xa0;" horiz-adv-x="300" 
 />
    <glyph glyph-name="Agrave" unicode="&#xc0;" horiz-adv-x="761" 
d="M419 870l81 37l56 -145h-54zM548 256l-63 359l-256 -359h319zM468 705h76l130 -705h-81l-32 185h-382l-132 -185h-87z" />
    <glyph glyph-name="Atilde" unicode="&#xc3;" horiz-adv-x="761" 
d="M355 780q25 52 53 79t64 27q24 0 39 -9t32 -24t26.5 -22t22.5 -7q18 0 31.5 15.5t30.5 44.5l49 -22q-25 -51 -52.5 -78.5t-64.5 -27.5q-23 0 -38 9.5t-32 23.5q-17 16 -27 22.5t-23 6.5q-17 0 -31 -15t-31 -44zM548 256l-63 359l-256 -359h319zM468 705h76l130 -705h-81
l-32 185h-382l-132 -185h-87z" />
    <glyph glyph-name="Otilde" unicode="&#xd5;" horiz-adv-x="842" 
d="M365 780q25 52 53 79t64 27q24 0 39 -9t32 -24t26.5 -22t22.5 -7q18 0 31.5 15.5t30.5 44.5l49 -22q-25 -51 -52.5 -78.5t-64.5 -27.5q-23 0 -38 9.5t-32 23.5q-17 16 -27 22.5t-23 6.5q-17 0 -31 -15t-31 -44zM400 60q69 0 127.5 29.5t101 78t67 111t24.5 127.5
q0 49 -16 92t-46 74t-72.5 49t-94.5 18q-69 0 -127.5 -29.5t-101 -78t-67 -111t-24.5 -127.5q0 -50 16 -92.5t46 -73.5t72 -49t95 -18zM395 -13q-68 0 -124.5 23.5t-97 64.5t-63 96.5t-22.5 119.5q0 81 31.5 157t86 134.5t129 94t161.5 35.5q68 0 124.5 -23.5t97 -64.5
t63 -96t22.5 -119q0 -81 -31.5 -157.5t-86 -135t-129 -94t-161.5 -35.5z" />
    <glyph glyph-name="OE" unicode="&#x152;" horiz-adv-x="1132" 
d="M529 73l149 554h-133q-88 0 -162 -28t-128 -82q-42 -42 -64.5 -97.5t-22.5 -120.5q0 -50 15 -88.5t43 -66.5q35 -35 89 -53t125 -18h89zM435 0q-88 0 -157.5 23.5t-116.5 70.5q-36 36 -56 86t-20 114q0 81 28.5 150t82.5 123q63 63 155 98t204 35h630l-19 -72h-409
l-64 -239h363l-19 -72h-363l-66 -245h414l-20 -72h-567z" />
    <glyph glyph-name="oe" unicode="&#x153;" horiz-adv-x="1041" 
d="M289 57q43 0 83 19t71 51.5t49 74.5t18 88q0 81 -45 125.5t-117 44.5q-45 0 -85 -20t-70.5 -53t-48 -76t-17.5 -88q0 -78 45 -122t117 -44zM923 291q2 8 3 17t1 22q0 27 -7.5 51t-23.5 42t-40.5 29t-57.5 11q-38 0 -71.5 -13.5t-60 -37t-46 -54.5t-30.5 -67h333zM579 229
q-1 -5 -1 -9v-9q0 -71 42 -113.5t114 -42.5q50 0 87 16t72 45l41 -51q-38 -32 -88 -54.5t-114 -22.5q-79 0 -134 38t-74 102q-19 -29 -43.5 -54.5t-55 -44.5t-66.5 -30t-77 -11q-52 0 -95 17.5t-73.5 48.5t-47.5 73.5t-17 92.5q0 60 24 116t65.5 98.5t97 68t117.5 25.5
q42 0 77 -11.5t61 -31.5t44 -46.5t27 -57.5q18 30 41.5 56.5t53.5 46.5t66 32t79 12q49 0 86.5 -16t62.5 -43t38 -63t13 -76q0 -26 -5 -51.5t-14 -49.5h-404z" />
    <glyph glyph-name="endash" unicode="&#x2013;" horiz-adv-x="529" 
d="M86 339h399l-20 -77h-399z" />
    <glyph glyph-name="emdash" unicode="&#x2014;" horiz-adv-x="899" 
d="M86 339h769l-20 -77h-769z" />
    <glyph glyph-name="quotedblleft" unicode="&#x201c;" horiz-adv-x="455" 
d="M156 568q9 33 21.5 56t30 39t41 26t53.5 15l7 -34q-44 -11 -65.5 -33t-27.5 -54h36l-28 -105h-92zM356 568q9 33 21.5 56t30 39t40.5 26t53 15l8 -34q-44 -11 -65.5 -33t-27.5 -54h36l-28 -105h-92z" />
    <glyph glyph-name="quotedblright" unicode="&#x201d;" horiz-adv-x="455" 
d="M109 508q44 11 65.5 33t27.5 54h-36l28 105h92l-24 -90q-18 -65 -51.5 -95.5t-94.5 -40.5zM309 508q44 11 65.5 33t27.5 54h-36l28 105h92l-24 -90q-18 -65 -51.5 -95.5t-94.5 -40.5z" />
    <glyph glyph-name="quoteleft" unicode="&#x2018;" horiz-adv-x="255" 
d="M157 569q17 64 51 94.5t94 41.5l8 -35q-44 -11 -66 -32.5t-28 -54.5h37l-29 -105h-92z" />
    <glyph glyph-name="quoteright" unicode="&#x2019;" horiz-adv-x="255" 
d="M116 508q44 11 66 33t28 54h-37l29 105h92l-25 -90q-18 -65 -51 -95.5t-94 -40.5z" />
    <glyph glyph-name="ydieresis" unicode="&#xff;" horiz-adv-x="574" 
d="M254 690h90l-26 -95h-90zM431 690h89l-26 -95h-89zM38 -163q-33 0 -60.5 9.5t-52.5 26.5l42 58q14 -11 37 -18.5t42 -7.5q33 0 64.5 20.5t70.5 75.5l-94 516h80l72 -431l278 431h87l-354 -534q-55 -80 -104.5 -113t-107.5 -33z" />
    <glyph glyph-name="Ydieresis" unicode="&#x178;" horiz-adv-x="663" 
d="M346 857h90l-26 -95h-90zM523 857h89l-26 -95h-89zM292 282l-173 418h88l140 -353l330 353h101l-410 -431l-72 -269h-80z" />
    <glyph glyph-name="fraction" unicode="&#x2044;" horiz-adv-x="542" 
d="M599 758h79l-697 -856h-79z" />
    <glyph glyph-name="fraction" unicode="&#x2215;" horiz-adv-x="542" 
d="M599 758h79l-697 -856h-79z" />
    <glyph glyph-name="currency" unicode="&#xa4;" horiz-adv-x="694" 
d="M378 -12q-52 0 -96 17t-77 49.5t-53 78.5t-24 104h-95l17 63h79q3 57 19 108h-70l17 62h73q22 52 54 96.5t73.5 76.5t91.5 50.5t107 18.5q46 0 83.5 -12t65.5 -33.5t47.5 -51t31.5 -63.5l-68 -31q-24 56 -62 87.5t-107 31.5q-38 0 -72 -12.5t-63 -35t-53 -54t-42 -68.5
h272l-17 -62h-279q-8 -26 -13 -53t-7 -55h271l-17 -63h-254q5 -80 49.5 -128.5t119.5 -48.5q59 0 102.5 23.5t82.5 66.5l53 -46q-45 -51 -102 -83.5t-138 -32.5z" />
    <glyph glyph-name="guilsinglleft" unicode="&#x2039;" horiz-adv-x="328" 
d="M45 252l2 8l222 216l50 -42l-188 -187l82 -177l-63 -31z" />
    <glyph glyph-name="guilsinglright" unicode="&#x203a;" horiz-adv-x="328" 
d="M8 80l187 187l-82 177l63 31l105 -213l-2 -8l-221 -216z" />
    <glyph glyph-name="daggerdbl" unicode="&#x2021;" horiz-adv-x="425" 
d="M145 141l-124 -8l14 55l121 -8l40 170l51 170l-125 -8l15 55l121 -8l29 141h61l-46 -141l125 8l-15 -55l-122 8l-39 -170l-52 -170l126 8l-15 -55l-120 8l-30 -141h-61z" />
    <glyph glyph-name="periodcentered" unicode="&#xb7;" horiz-adv-x="255" 
d="M106 353h91l-28 -105h-92z" />
    <glyph glyph-name="periodcentered" unicode="&#x2219;" horiz-adv-x="255" 
d="M106 353h91l-28 -105h-92z" />
    <glyph glyph-name="quotesinglbase" unicode="&#x201a;" horiz-adv-x="255" 
d="M-45 -87q44 11 66 33t28 54h-37l29 105h91l-24 -90q-18 -65 -51.5 -95t-93.5 -41z" />
    <glyph glyph-name="quotedblbase" unicode="&#x201e;" horiz-adv-x="455" 
d="M-45 -87q44 11 66 33t28 54h-37l29 105h91l-24 -90q-18 -65 -51.5 -95t-93.5 -41zM156 -87q44 11 65.5 33t27.5 54h-36l28 105h92l-24 -90q-18 -65 -51.5 -95t-93.5 -41z" />
    <glyph glyph-name="perthousand" unicode="&#x2030;" horiz-adv-x="1226" 
d="M608 48q27 0 49.5 14t39.5 36.5t26.5 50t9.5 55.5q0 44 -22 70t-62 26q-27 0 -49.5 -14t-39.5 -36.5t-26.5 -50.5t-9.5 -56q0 -43 22 -69t62 -26zM997 48q27 0 49.5 14t39.5 36.5t26.5 50t9.5 55.5q0 44 -22 70t-62 26q-27 0 -49.5 -14t-39.5 -36.5t-26.5 -50.5t-9.5 -56
q0 -43 22 -69t62 -26zM237 401q27 0 49.5 14t39.5 36.5t26.5 50t9.5 55.5q0 44 -22 70t-62 26q-27 0 -49.5 -14t-39.5 -36.5t-26.5 -50t-9.5 -55.5q0 -44 21.5 -70t62.5 -26zM603 -7q-32 0 -57.5 11t-44.5 30.5t-29 46.5t-10 58q0 41 14.5 80t40 69t61 48.5t76.5 18.5
q31 0 57 -11.5t45 -31t29 -46t10 -57.5q0 -41 -14.5 -80t-40 -69t-61 -48.5t-76.5 -18.5zM992 -7q-32 0 -57.5 11t-44.5 30.5t-29 46.5t-10 58q0 41 14.5 80t40 69t61 48.5t76.5 18.5q31 0 57 -11.5t45 -31t29 -46t10 -57.5q0 -41 -14.5 -80t-40 -69t-61 -48.5t-76.5 -18.5z
M743 700h79l-679 -700h-79zM232 346q-32 0 -57.5 11.5t-44.5 31t-29 46t-10 57.5q0 41 14.5 80t40 69t60.5 48.5t76 18.5q32 0 58 -11.5t45 -31t29 -46t10 -57.5q0 -41 -14.5 -80t-40 -69t-61 -48.5t-76.5 -18.5z" />
    <glyph glyph-name="Acircumflex" unicode="&#xc2;" horiz-adv-x="761" 
d="M515 893h68l71 -131h-62l-54 67l-96 -67h-68zM548 256l-63 359l-256 -359h319zM468 705h76l130 -705h-81l-32 185h-382l-132 -185h-87z" />
    <glyph glyph-name="Ecircumflex" unicode="&#xca;" horiz-adv-x="653" 
d="M476 893h68l71 -131h-62l-54 67l-96 -67h-68zM218 700h501l-20 -72h-422l-64 -239h377l-20 -72h-376l-66 -245h427l-19 -72h-506z" />
    <glyph glyph-name="Aacute" unicode="&#xc1;" horiz-adv-x="761" 
d="M606 907l80 -37l-142 -108h-72zM548 256l-63 359l-256 -359h319zM468 705h76l130 -705h-81l-32 185h-382l-132 -185h-87z" />
    <glyph glyph-name="Edieresis" unicode="&#xcb;" horiz-adv-x="653" 
d="M372 857h90l-26 -95h-90zM549 857h89l-26 -95h-89zM218 700h501l-20 -72h-422l-64 -239h377l-20 -72h-376l-66 -245h427l-19 -72h-506z" />
    <glyph glyph-name="Egrave" unicode="&#xc8;" horiz-adv-x="653" 
d="M383 870l81 37l56 -145h-54zM218 700h501l-20 -72h-422l-64 -239h377l-20 -72h-376l-66 -245h427l-19 -72h-506z" />
    <glyph glyph-name="Iacute" unicode="&#xcd;" horiz-adv-x="291" 
d="M360 907l80 -37l-142 -108h-72zM225 700h79l-188 -700h-79z" />
    <glyph glyph-name="Icircumflex" unicode="&#xce;" horiz-adv-x="291" 
d="M274 893h68l71 -131h-62l-54 67l-96 -67h-68zM225 700h79l-188 -700h-79z" />
    <glyph glyph-name="Idieresis" unicode="&#xcf;" horiz-adv-x="291" 
d="M174 857h90l-26 -95h-90zM351 857h89l-26 -95h-89zM225 700h79l-188 -700h-79z" />
    <glyph glyph-name="Igrave" unicode="&#xcc;" horiz-adv-x="291" 
d="M179 870l81 37l56 -145h-54zM225 700h79l-188 -700h-79z" />
    <glyph glyph-name="Oacute" unicode="&#xd3;" horiz-adv-x="842" 
d="M588 907l80 -37l-142 -108h-72zM400 60q69 0 127.5 29.5t101 78t67 111t24.5 127.5q0 49 -16 92t-46 74t-72.5 49t-94.5 18q-69 0 -127.5 -29.5t-101 -78t-67 -111t-24.5 -127.5q0 -50 16 -92.5t46 -73.5t72 -49t95 -18zM395 -13q-68 0 -124.5 23.5t-97 64.5t-63 96.5
t-22.5 119.5q0 81 31.5 157t86 134.5t129 94t161.5 35.5q68 0 124.5 -23.5t97 -64.5t63 -96t22.5 -119q0 -81 -31.5 -157.5t-86 -135t-129 -94t-161.5 -35.5z" />
    <glyph glyph-name="Ocircumflex" unicode="&#xd4;" horiz-adv-x="842" 
d="M534 893h68l71 -131h-62l-54 67l-96 -67h-68zM400 60q69 0 127.5 29.5t101 78t67 111t24.5 127.5q0 49 -16 92t-46 74t-72.5 49t-94.5 18q-69 0 -127.5 -29.5t-101 -78t-67 -111t-24.5 -127.5q0 -50 16 -92.5t46 -73.5t72 -49t95 -18zM395 -13q-68 0 -124.5 23.5
t-97 64.5t-63 96.5t-22.5 119.5q0 81 31.5 157t86 134.5t129 94t161.5 35.5q68 0 124.5 -23.5t97 -64.5t63 -96t22.5 -119q0 -81 -31.5 -157.5t-86 -135t-129 -94t-161.5 -35.5z" />
    <glyph glyph-name="Ograve" unicode="&#xd2;" horiz-adv-x="842" 
d="M443 870l81 37l56 -145h-54zM400 60q69 0 127.5 29.5t101 78t67 111t24.5 127.5q0 49 -16 92t-46 74t-72.5 49t-94.5 18q-69 0 -127.5 -29.5t-101 -78t-67 -111t-24.5 -127.5q0 -50 16 -92.5t46 -73.5t72 -49t95 -18zM395 -13q-68 0 -124.5 23.5t-97 64.5t-63 96.5
t-22.5 119.5q0 81 31.5 157t86 134.5t129 94t161.5 35.5q68 0 124.5 -23.5t97 -64.5t63 -96t22.5 -119q0 -81 -31.5 -157.5t-86 -135t-129 -94t-161.5 -35.5z" />
    <glyph glyph-name="Uacute" unicode="&#xda;" horiz-adv-x="758" 
d="M567 907l80 -37l-142 -108h-72zM347 -11q-63 0 -110.5 16.5t-79.5 46.5t-48.5 71t-16.5 90q0 55 15 109l100 378h80l-106 -399q-5 -16 -7.5 -36t-2.5 -43q0 -34 11 -63.5t34 -51t57 -33.5t81 -12q44 0 83.5 16t72.5 48q27 28 50.5 70.5t38.5 100.5l109 403h79l-112 -417
q-36 -133 -110 -207q-87 -87 -218 -87z" />
    <glyph glyph-name="Ucircumflex" unicode="&#xdb;" horiz-adv-x="758" 
d="M506 893h68l71 -131h-62l-54 67l-96 -67h-68zM347 -11q-63 0 -110.5 16.5t-79.5 46.5t-48.5 71t-16.5 90q0 55 15 109l100 378h80l-106 -399q-5 -16 -7.5 -36t-2.5 -43q0 -34 11 -63.5t34 -51t57 -33.5t81 -12q44 0 83.5 16t72.5 48q27 28 50.5 70.5t38.5 100.5l109 403
h79l-112 -417q-36 -133 -110 -207q-87 -87 -218 -87z" />
    <glyph glyph-name="Ugrave" unicode="&#xd9;" horiz-adv-x="758" 
d="M411 870l81 37l56 -145h-54zM347 -11q-63 0 -110.5 16.5t-79.5 46.5t-48.5 71t-16.5 90q0 55 15 109l100 378h80l-106 -399q-5 -16 -7.5 -36t-2.5 -43q0 -34 11 -63.5t34 -51t57 -33.5t81 -12q44 0 83.5 16t72.5 48q27 28 50.5 70.5t38.5 100.5l109 403h79l-112 -417
q-36 -133 -110 -207q-87 -87 -218 -87z" />
    <glyph glyph-name="dotlessi" unicode="&#x131;" horiz-adv-x="264" 
d="M163 517h77l-139 -517h-77z" />
    <glyph glyph-name="circumflex" unicode="&#x2c6;" 
d="M342 726h68l71 -131h-62l-54 67l-96 -67h-68z" />
    <glyph glyph-name="tilde" unicode="&#x2dc;" 
d="M180 613q25 52 53 79t64 27q24 0 39 -9t32 -24t26.5 -22t22.5 -7q18 0 31.5 15.5t30.5 44.5l49 -22q-25 -51 -52.5 -78.5t-64.5 -27.5q-23 0 -38 9.5t-32 23.5q-17 16 -27 22.5t-23 6.5q-17 0 -31 -15t-31 -44z" />
    <glyph glyph-name="macron" unicode="&#xaf;" 
d="M199 667h317l-18 -67h-316z" />
    <glyph glyph-name="macron" unicode="&#x2c9;" 
d="M199 667h317l-18 -67h-316z" />
    <glyph glyph-name="breve" unicode="&#x2d8;" 
d="M344 593q-58 0 -89.5 30t-31.5 78q0 6 0.5 11.5t2.5 13.5h57q0 -31 15.5 -50t56.5 -19q36 0 62 19t43 50h62q-10 -31 -28 -55.5t-41.5 -42t-51 -26.5t-57.5 -9z" />
    <glyph glyph-name="dotaccent" unicode="&#x2d9;" 
d="M322 692h89l-27 -98h-89z" />
    <glyph glyph-name="ring" unicode="&#x2da;" 
d="M359 633q30 0 49.5 21.5t19.5 50.5q0 22 -14.5 36t-41.5 14q-30 0 -50 -21.5t-20 -50.5q0 -22 14.5 -36t42.5 -14zM358 594q-45 0 -72 25t-27 63q0 23 9 43t24.5 35t36 24t43.5 9q45 0 72.5 -25t27.5 -63q0 -23 -9 -43t-24.5 -35t-36.5 -24t-44 -9z" />
    <glyph glyph-name="cedilla" unicode="&#xb8;" 
d="M63 -121l125 131h61l-120 -165z" />
    <glyph glyph-name="hungarumlaut" unicode="&#x2dd;" 
d="M308 740l64 -37l-137 -108h-62zM472 740l65 -37l-139 -108h-61z" />
    <glyph glyph-name="ogonek" unicode="&#x2db;" 
d="M228 -164q-78 -4 -115.5 19t-37.5 62q0 20 11.5 46.5t25.5 46.5h59q-9 -17 -16 -39.5t-7 -36.5q0 -53 90 -57z" />
    <glyph glyph-name="caron" unicode="&#x2c7;" 
d="M234 726h62l55 -67l96 67h68l-142 -131h-68z" />
    <glyph glyph-name="Lslash" unicode="&#x141;" horiz-adv-x="652" 
d="M155 301l-80 -22l19 73l81 23l87 325h79l-81 -301l234 66l-20 -74l-234 -66l-68 -252h396l-20 -73h-474z" />
    <glyph glyph-name="lslash" unicode="&#x142;" horiz-adv-x="322" 
d="M140 320l-81 -23l20 75l81 23l90 335h77l-84 -312l83 24l-20 -75l-83 -24l-92 -343h-77z" />
    <glyph glyph-name="Scaron" unicode="&#x160;" horiz-adv-x="637" 
d="M332 893h62l55 -67l96 67h68l-142 -131h-68zM298 -10q-97 0 -169 35t-117 98l60 47q45 -54 99 -81.5t132 -27.5q38 0 70.5 10t56 27t37 41t13.5 53q0 20 -7.5 36.5t-24 31.5t-44.5 29.5t-68 30.5q-48 19 -84 38t-60 40.5t-36 48t-12 60.5q0 43 19 80.5t53.5 64.5
t81.5 42.5t104 15.5q82 0 145 -29.5t103 -76.5l-58 -52q-38 42 -86.5 64.5t-110.5 22.5q-39 0 -70.5 -10t-53 -27.5t-33 -39.5t-11.5 -46q0 -21 8.5 -38t27.5 -32t48.5 -29t70.5 -30q45 -17 79 -35.5t56.5 -40.5t34 -48.5t11.5 -60.5q0 -46 -20.5 -85t-56 -67t-84 -44
t-104.5 -16z" />
    <glyph glyph-name="scaron" unicode="&#x161;" horiz-adv-x="496" 
d="M225 726h62l55 -67l96 67h68l-142 -131h-68zM217 -11q-60 0 -119 22.5t-104 67.5l50 50q42 -41 87.5 -58.5t92.5 -17.5q22 0 42.5 6t36.5 17.5t25.5 27t9.5 35.5q0 25 -21 45.5t-77 42.5q-70 27 -108 57.5t-38 84.5q0 33 13.5 62t39 50.5t62 34t81.5 12.5q57 0 108 -21.5
t83 -49.5l-45 -53q-32 26 -71.5 43t-81.5 17q-55 0 -83.5 -25t-28.5 -57q0 -13 4.5 -23.5t16 -21t31.5 -21t51 -22.5q70 -29 105.5 -60.5t35.5 -81.5q0 -36 -15.5 -66t-42.5 -51.5t-63 -33.5t-77 -12z" />
    <glyph glyph-name="Yacute" unicode="&#xdd;" horiz-adv-x="663" 
d="M519 907l80 -37l-142 -108h-72zM292 282l-173 418h88l140 -353l330 353h101l-410 -431l-72 -269h-80z" />
    <glyph glyph-name="yacute" unicode="&#xfd;" horiz-adv-x="574" 
d="M429 740l80 -37l-142 -108h-72zM38 -163q-33 0 -60.5 9.5t-52.5 26.5l42 58q14 -11 37 -18.5t42 -7.5q33 0 64.5 20.5t70.5 75.5l-94 516h80l72 -431l278 431h87l-354 -534q-55 -80 -104.5 -113t-107.5 -33z" />
    <glyph glyph-name="Thorn" unicode="&#xde;" horiz-adv-x="674" 
d="M314 199q124 0 191.5 47t67.5 133q0 52 -33 84q-44 44 -138 44h-157l-82 -308h151zM218 700h78l-31 -120h139q135 0 201 -65q49 -51 49 -131q0 -61 -25 -108.5t-70 -80.5t-108.5 -50t-140.5 -17h-166l-35 -128h-79z" />
    <glyph glyph-name="thorn" unicode="&#xfe;" horiz-adv-x="659" 
d="M312 56q46 0 85.5 20t68.5 53.5t45.5 78t16.5 94.5q0 36 -10.5 65t-30 50t-46 32t-59.5 11q-43 0 -84.5 -20.5t-73.5 -54t-52 -77.5t-20 -91q0 -34 11.5 -63.5t32.5 -51t50.5 -34t65.5 -12.5zM213 730h77l-82 -302q38 42 85.5 71t110.5 29q44 0 81.5 -15.5t65 -44.5
t43 -69.5t15.5 -89.5q0 -69 -24 -127.5t-64.5 -101.5t-92.5 -67.5t-109 -24.5q-40 0 -71 10.5t-55 28t-40.5 40.5t-27.5 49l-74 -276h-77z" />
    <glyph glyph-name="Zcaron" unicode="&#x17d;" horiz-adv-x="669" 
d="M345 893h62l55 -67l96 67h68l-142 -131h-68zM-5 53l597 576h-427l20 71h542l-14 -53l-598 -576h446l-19 -71h-561z" />
    <glyph glyph-name="zcaron" unicode="&#x17e;" horiz-adv-x="549" 
d="M245 726h62l55 -67l96 67h68l-142 -131h-68zM-6 49l441 403h-321l18 65h432l-14 -49l-442 -403h338l-18 -65h-448z" />
    <glyph glyph-name="eth" unicode="&#xf0;" horiz-adv-x="622" 
d="M281 57q44 0 83 17t68 46.5t45.5 68t16.5 81.5q0 32 -11.5 60t-33 49t-52.5 33t-70 12q-42 0 -79.5 -17t-65 -46t-44 -67.5t-16.5 -81.5q0 -36 12 -64.5t33 -49t50 -31t64 -10.5zM275 -11q-50 0 -92.5 16.5t-73 45.5t-47.5 69.5t-17 87.5q0 58 22.5 108.5t60.5 88t88 59
t104 21.5t90.5 -15.5t62.5 -38.5l-78 181l-149 -63l-26 50l153 64l-30 67h84l16 -39l113 48l25 -50l-117 -49l64 -157q24 -59 35 -103.5t11 -90.5q0 -59 -21.5 -113t-61 -95.5t-94.5 -66.5t-122 -25z" />
    <glyph glyph-name="apple" horiz-adv-x="967" 
d="M417 64q0 -7 -2.5 -12t-9.5 -5q-6 0 -9 5t-3 12q0 16 12 16t12 -16zM352 64h-3q-8 0 -8 8q0 6 7 6q4 0 4 -4v-10zM553 79q4 0 0 -9q-5 9 0 9zM393 182q0 -7 -4 -7h-5q-11 0 -18.5 10t-7.5 22q0 17 14 17h6q3 -1 3.5 -1.5t2.5 -5.5zM716 187q0 -13 -11 -13q-9 0 -17 11.5
t-8 26.5q0 14 11 14q9 0 17 -11.5t8 -27.5zM275 200q-8 0 -11.5 5t-3.5 10q0 9 8 9t9 -5l3 -19h-5zM381 384q-13 0 -13 11t13 11h11v-22h-11zM684 535q0 -13 -11 -13q-9 0 -17 11.5t-8 26.5q0 14 11 14q9 0 17 -11.5t8 -27.5zM272 553q-3 -4 -7 -4t-4 2q0 3 4 3q5 0 7 -1z
M566 553q-3 -4 -7 -4t-4 2q0 3 4 3q5 0 7 -1zM171 548q-8 0 -11.5 5t-3.5 10q0 9 8 9t9 -5l3 -19h-5zM441 -88q0 13 -11 13t-11 -12q0 -13 11 -13t11 12zM800 -88q0 13 -11 13t-11 -12q0 -13 11 -13t11 12zM559 -80l-5 -12h10zM394 -83q0 8 -11 7v-13q11 0 11 6zM525 -82
q0 8 -11 6v-12q11 -1 11 6zM606 -83q0 8 -11 7v-13q11 0 11 6zM309 48q-2 0 -3 1q-3 1 -3 5v20q0 2 3 4q1 1 3 1v2h-18v-2q1 0 3 -1q3 -3 3 -4v-9q-2 0 -4 2l-8 8q-3 1 -1 3q1 1 2 1v2h-14v-2q1 0 3 -1t2.5 -1.5t2.5 -1.5l10 -9l-13 -13q-1 -1 -2 -1.5t-2 -1.5q-2 -1 -3 -2
v-2h17v2q-2 0 -3 1t1 4l8 8q2 2 4 2v-9q0 -2 -3 -5q-2 -1 -3 -1v-2h18v2zM364 48q-2 0 -3 1q-2 2 -2 4v20q0 3 2 5q1 1 3 1v2h-18q-13 0 -13 -9q0 -5 9 -9l-7 -10q-2 -2 -3.5 -2.5t-2.5 -1.5l-2 -1v-2h11l7 12q3 4 7 4v-9q0 -2 -1 -2.5t-2 -1.5t-2 -1v-2h17v2zM425 64
q0 8 -5 13t-15 5t-15 -5t-5 -13t5 -13.5t15 -5.5t15 5.5t5 13.5zM480 81h-15v-2q1 0 2 -1t-1 -4l-6 -9l-6 9q-2 2 0 4q1 1 3 1v2h-15v-2q1 0 3 -1t5 -4l8 -12v-8q0 -2 -3 -5q-1 -1 -2 -1v-2h17v2q-2 0 -3 1q-2 2 -2 5v8l8 12q1 2 2.5 2.5t2.5 1.5t2 1v2zM568 81v-2q1 0 2 -1
t0 -4l-9 -19l-5 10l4 8q1 2 2 2.5t2 1.5l2 2v2h-26l1 -2q1 0 2 -1l2 -2l3 -3l3 -5l-7 -13l-8 18q-2 3 0 5q1 1 2 1v2h-13v-2q1 0 2 -1q3 -3 4 -5l13 -27h1q1 -1 1 0l8 16l9 -16h1l12 27q1 2 2.5 3t2.5 2t2 1v2h-15zM633 48q-2 -1 -3 0q-2 0 -2 5v21q0 3 2 5h3v2h-29l-2 -10
l2 -1q0 2 2 4q2 4 7 4h4q4 0 4 -3v-10h-4q-3 0 -5 2q-1 1 -1 3h-2v-13h2q0 1 1 3q3 3 5 3h4v-11q0 -3 -4 -3h-4q-4 0 -8 4q-2 2 -2 5l-2 -1l2 -11h30v2zM694 48q-2 0 -3 1q-3 1 -3 4v20q0 2 3 4q1 1 3 2v2h-10l-24 -26v18q0 3 3 5q1 1 3 1v2h-15v-2q1 0 3 -1q3 -3 3 -5v-28
h3l25 28v-20q0 -1 -3 -4q-1 -1 -2 -1v-2h14v2zM827 133h-685v-6h685v6zM306 174q-2 0 -4 1t-3.5 2t-2.5 5l-7 35q-1 5 3 7q2 1 4 1l-1 3h-27q-20 0 -20 -15q0 -6 5.5 -10t13.5 -5l-9 -16q-2 -4 -4.5 -5t-4.5 -2q-3 -1 -5 -1l1 -3h19l12 23q1 3 5 3l3 -15q1 -5 -3 -7
q-2 -1 -4 -1l1 -3h29zM413 175q-2 -1 -4 0q-5 2 -6 9l-8 31q-3 9 8 10l-1 3h-30q-9 0 -17 -5.5t-8 -16.5q0 -16 11 -25.5t24 -9.5h32zM522 174q-1 0 -3 1q-5 2 -6 9l-7 32q-1 6 3 8q2 1 5 1l-1 3h-14l-29 -42l-5 30q-1 6 3 8q2 1 4 1l-1 3h-21l1 -3q2 0 4 -1q3 -2 5 -8
l8 -45l3 -1l30 44l6 -30q1 -7 -2 -9q-2 -1 -4 -1l1 -3h21zM620 228h-29l1 -3q2 0 4 -1q5 -2 6 -8l5 -21q2 -10 1 -15t-12 -5q-8 0 -13 6.5t-7 15.5l-4 19q-1 7 3 9q2 1 4 0v3h-24l1 -3q2 0 5 -1q5 -2 6 -8l4 -19q2 -8 8 -17.5t20 -9.5q17 0 19 8t0 16l-5 22q-2 4 -0.5 6
t3.5 3t5 0zM822 174q-2 0 -4 1t-3.5 2t-2.5 5l-7 35q-1 5 3 7q2 1 4 1l-1 3h-45v-10v-7h4q-1 3 1 6q2 7 12 7h4q5 0 6 -6l3 -16h-4q-5 0 -9 4q-2 2 -3 5h-3l5 -23h3q0 2 1 5q2 6 7 6h4l3 -17q1 -5 -3 -7q-2 -1 -4 -1l1 -3h29zM203 217q-3 5 -6.5 9t-11.5 4q-15 0 -14 -23
q-3 10 -8 16.5t-13 6.5q-5 0 -8.5 -3t-3.5 -9l3 -1q0 6 8 6q10 0 15.5 -10.5t8.5 -22.5q2 -7 1 -9.5t-3 -4.5t-4 -1l1 -4h28l-1 4q-2 -1 -4 0q-5 2 -6 9q-5 17 -5 25q0 13 9 13q5 0 7.5 -2.5l4.5 -4.5zM728 192q0 15 -11.5 26.5t-25.5 11.5q-7 0 -15 -5t-8 -17
q0 -16 11.5 -27t25.5 -11q7 0 15 5t8 17zM827 277h-685v-6h685v6zM283 341h-14v65h14v34h-141v-62h41v28h33v-20h-24v-24h24v-21h-33v28h-41v-61h141v33zM458 341h-14v65h14v34h-96q-22 0 -34.5 -11.5t-12.5 -28.5t12.5 -28.5t34.5 -11.5h30v-19h-15v-33h81v33zM648 440h-81
v-34h11l-15 -23l-15 23h10v34h-62v-34h12l37 -46v-19h-14v-33h81v33h-15v20l37 45h14v34zM827 440h-147v-62h36v28h11v-65h-14v-33h81v33h-14v65h11v-28h36v62zM827 481h-685v-6h685v6zM400 521q0 2 -3 5t-10 4q-4 3 -4.5 10.5t-2 16t-6 15t-16.5 6.5q-5 0 -9 -3.5t-4 -6.5
q0 -5 5 -5q4 0 4 6t5 6t6.5 -5t2.5 -12t3.5 -14.5t8.5 -13.5q-11 0 -14.5 -6.5t-8.5 -6.5t-5 4q0 2 1 2.5t1 2.5q0 5 -5 5t-5 -7q0 -5 5 -8.5t10 -3.5q13 0 15 6.5t10 6.5q3 -7 12 -7q4 0 4 3zM202 522q-2 0 -4 1t-3.5 2t-2.5 5l-7 35q-1 5 3 7q2 1 4 1l-1 3h-27
q-20 0 -20 -15q0 -6 5.5 -10t13.5 -5l-9 -16q-2 -4 -4.5 -5t-4.5 -2q-3 -1 -5 -1l1 -3h19l12 23q1 3 5 3l3 -15q1 -5 -3 -7q-2 -1 -4 -1l1 -3h29zM497 522q-2 0 -4 1t-3.5 2t-2.5 5l-7 35q-1 5 3 7q2 1 4 1l-1 3h-45v-10v-7h4q-1 3 1 6q2 7 12 7h4q5 0 6 -6l3 -16h-4
q-5 0 -9 4q-2 2 -3 5h-3l5 -23h3q0 2 1 5q2 6 7 6h4l3 -17q1 -5 -3 -7q-2 -1 -4 -1l1 -3h29zM820 522q-2 0 -4 1t-3.5 2t-2.5 5l-7 35q-1 5 3 7q2 1 4 1l-1 3h-28l1 -3q2 0 4 -1q4 -2 5 -7l3 -15h-24l-3 15q-1 5 3 7q2 1 4 1l-1 3h-29l1 -3q2 0 4 -1q5 -2 6 -7l7 -35
q1 -5 -3 -7q-2 -1 -4 -1l1 -3h29l-1 3q-2 0 -4 1t-3.5 2t-2.5 5l-3 16h24l3 -16q1 -5 -3 -7q-2 -1 -4 -1l1 -3h29zM295 537q0 12 -14 17q5 3 5 9q0 5 -5 10t-16 5q-13 0 -13 -11q0 -6 5 -6q4 0 4 3t-1.5 3.5t-1.5 2.5q0 5 7 5q10 0 10 -12q0 -4 -2 -6q-16 2 -16 -6
q0 -6 8 -6q6 0 11 5q6 -5 6 -15q0 -14 -12 -14t-12 9q0 3 3 3q1 0 2 -1t3 -1q4 0 4 5t-7 5q-9 0 -9 -10q0 -13 16 -13q13 0 19 5.5t6 13.5zM589 537q0 12 -14 17q5 3 5 9q0 5 -5 10t-16 5q-13 0 -13 -11q0 -6 5 -6q4 0 4 3t-1.5 3.5t-1.5 2.5q0 5 7 5q10 0 10 -12
q0 -4 -2 -6q-16 2 -16 -6q0 -6 8 -6q6 0 11 5q6 -5 6 -15q0 -14 -12 -14t-12 9q0 3 3 3q1 0 2 -1t3 -1q4 0 4 5t-7 5q-9 0 -9 -10q0 -13 16 -13q13 0 19 5.5t6 13.5zM696 540q0 15 -11.5 26.5t-25.5 11.5q-7 0 -15 -5t-8 -17q0 -16 11.5 -27t25.5 -11q7 0 15 5t8 17z
M827 624h-685v-6h685v6zM439 664q-2 -1 -3 0q-2 0 -2 5v21q0 3 2 5h3v2h-29l-2 -10l2 -1q0 2 2 4q2 4 7 4h4q4 0 4 -3v-10h-4q-3 0 -5 2q-1 1 -1 3h-2v-13h2q0 1 1 3q3 3 5 3h4v-11q0 -3 -4 -3h-4q-4 0 -8 4q-2 2 -2 5l-2 -1l2 -11h30v2zM504 664q-2 -1 -3 0q-3 0 -3 5v21
q0 3 3 5h3v2h-18v-1v-1h2q3 -3 3 -5v-9h-17v9q0 3 2 5h3v1v1h-17v-2h2q3 -3 3 -5v-21q0 -2 -1 -2.5t-2 -1.5t-2 -1v-2h17v2q-2 0 -3 1q-2 2 -2 4v10h17v-10q0 -5 -3 -5q-1 -1 -2 0v-2h18v2zM559 686v4q0 2 -0.5 4t-0.5 4q-2 -1 -17 -1t-18 1q0 -2 -0.5 -4t-0.5 -4v-4h2
q1 2 3 4q5 5 7 5q3 0 3 -3v-23q0 -5 -3 -5q-1 -1 -2 0v-2h17v2q-2 -1 -3 0q-2 0 -2 5v23q0 3 3 3t8 -5q2 -2 2 -4h2zM284 -101q0 -4 -4 -4t-4 4t4 4t4 -4zM716 -101q0 -4 -4 -4t-4 4t4 4t4 -4zM143 -105h-1l-11 23l-10 -23h-1l-12 34l6 1l7 -23l10 23h1l10 -23l7 22h6z
M199 -105h-1l-11 23l-10 -23h-1l-12 34l6 1l7 -23l10 23h1l10 -23l7 22h6zM255 -105h-1l-11 23l-10 -23h-1l-12 34l6 1l7 -23l10 23h1l10 -23l7 22h6zM323 -76h-12v-28h-6v28h-12v5h30v-5zM351 -90v-14h-6v14l-14 19l6 1l11 -15l9 14h7zM400 -82q0 -12 -17 -12v-10h-6v33
q14 2 18.5 -2t4.5 -9zM447 -87q0 -8 -4.5 -13t-12.5 -5t-12.5 5t-4.5 12q0 8 5 13t13 5q7 0 11.5 -5t4.5 -12zM491 -101q-6 -4 -13 -4q-8 0 -13 4.5t-5 12.5t5.5 13t13.5 5q6 0 12 -4l-2 -5q-4 4 -11 4q-12 0 -12 -13q0 -12 13 -12q2 0 6 2v7h-9v5h15v-15zM527 -104l-8 11
h-5v-11h-6v33q14 2 18.5 -1.5t4.5 -8.5q0 -7 -7 -10l10 -13h-7zM570 -104l-4 8h-14l-3 -8h-6l15 34h2l16 -34h-6zM612 -82q0 -12 -17 -12v-10h-6v33q14 2 18.5 -2t4.5 -9zM650 -104v15h-16v-15h-6v33h6v-13h16v13h6v-33h-6zM689 -90v-14h-6v14l-14 19l6 1l11 -15l9 14h7z
M757 -102q-3 -3 -10 -3q-18 0 -18 17q0 8 5 13t13 5q6 0 11 -3l-2 -5q-3 3 -9 3q-5 0 -8.5 -3.5t-3.5 -8.5q0 -13 13 -13q4 0 10 4zM806 -87q0 -8 -4.5 -13t-12.5 -5t-12.5 5t-4.5 12q0 8 5 13t13 5q7 0 11.5 -5t4.5 -12zM853 -104l-3 20l-10 -21h-2l-10 21l-3 -20h-6l6 34
h1l13 -26l13 26h1l6 -34h-6zM101 0v750h767v-750h-767z" />
    <glyph glyph-name="Eth" unicode="&#xd0;" horiz-adv-x="800" 
d="M304 73q88 0 162 28t128 82q42 42 64.5 97.5t22.5 120.5q0 50 -15 88.5t-43 66.5q-35 35 -89 53t-125 18h-104l-64 -239h207l-19 -72h-208l-65 -243h148zM142 316h-78l20 72h77l84 312h170q88 0 157.5 -24t114.5 -69q38 -38 57.5 -87.5t19.5 -113.5q0 -81 -28.5 -150
t-82.5 -123q-63 -63 -155 -98t-204 -35h-237z" />
  </font>
</defs>
</svg>
